[MINI-HD 1080P] Ready Player One (2018) สงครามเกมคนอัจฉริยะ [พากย์ไทยโรง 5.1 + อังกฤษ 5.1] [ซับไทย + อังกฤษ] [MKV] [ONE2UP]

[MINI-HD 1080P] Ready Player One (2018) สงครามเกมคนอัจฉริยะ

Ready.Player.One.2018.WEB-DL.x264[load2up.com].mkv
Format : Matroska
Format version : Version 4 / Version 2
File size : 5.06 GiB
Duration : 2 h 19 min
Overall bit rate : 5 176 kb/s
Encoded date : UTC 2018-06-18 04:20:38
Writing application : mkvmerge v9.9.0 (‘Pick Up’) 64bit
Writing library : libebml v1.3.4 + libmatroska v1.4.5

Video
ID : 3
Format : AVC
Format/Info : Advanced Video Codec
Format profile : [email protected]
Format settings, CABAC : Yes
Format settings, ReFrames : 5 frames
Codec ID : V_MPEG4/ISO/AVC
Duration : 2 h 19 min
Bit rate : 4 582 kb/s
Width : 1 920 pixels
Height : 800 pixels
Display aspect ratio : 2.40:1
Frame rate mode : Constant
Frame rate : 23.976 (24000/1001) FPS
Color space : YUV
Chroma subsampling : 4:2:0
Bit depth : 8 bits
Scan type : Progressive
Bits/(Pixel*Frame) : 0.124
Stream size : 4.48 GiB (89%)
Language : English
Default : Yes
Forced : No
Color range : Limited
Color primaries : BT.709
Transfer characteristics : BT.709
Matrix coefficients : BT.709

Audio #1
ID : 4
Format : AC-3
Format/Info : Audio Coding 3
Format settings, Endianness : Big
Codec ID : A_AC3
Duration : 2 h 19 min
Bit rate mode : Constant
Bit rate : 192 kb/s
Channel(s) : 2 channels
Channel positions : Front: L R
Sampling rate : 48.0 kHz
Frame rate : 31.250 FPS (1536 spf)
Bit depth : 16 bits
Compression mode : Lossy
Delay relative to video : -42 ms
Stream size : 192 MiB (4%)
Language : Thai
Service kind : Complete Main
Default : No
Forced : No

Audio #2
ID : 5
Format : AC-3
Format/Info : Audio Coding 3
Format settings, Endianness : Big
Codec ID : A_AC3
Duration : 2 h 19 min
Bit rate mode : Constant
Bit rate : 384 kb/s
Channel(s) : 6 channels
Channel positions : Front: L C R, Side: L R, LFE
Sampling rate : 48.0 kHz
Frame rate : 31.250 FPS (1536 spf)
Bit depth : 16 bits
Compression mode : Lossy
Delay relative to video : -42 ms
Stream size : 384 MiB (7%)
Language : English
Service kind : Complete Main
Default : Yes
Forced : No

Text #1
ID : 1
Format : UTF-8
Codec ID : S_TEXT/UTF8
Codec ID/Info : UTF-8 Plain Text
Duration : 2 h 18 min
Bit rate : 113 b/s
Count of elements : 1621
Stream size : 116 KiB (0%)
Language : Thai
Default : No
Forced : No

Text #2
ID : 2
Format : PGS
Muxing mode : zlib
Codec ID : S_HDMV/PGS
Codec ID/Info : Picture based subtitle format used on BDs/HD-DVDs
Duration : 2 h 18 min
Bit rate : 15.5 kb/s
Count of elements : 3242
Stream size : 15.4 MiB (0%)
Language : Thai
Default : Yes
Forced : No



หมายเหตุ ทุกเว็บโหลดแทนกันได้ แต่ต้องเปลี่ยนชื่อให้เรียงกันด้วย

สำหรับสมาชิก VIP เท่านั้น!

[restrict …]

|——————————————————————|

|——————————————————————|

[/restrict]