[MINI-HD 1080P] Rampant (2018) นครนรกซอมบี้คลั่ง [ภาพมาสเตอร์] [พากย์ไทยโรงชัด] [MKV] [ONE2UP]

[MINI-HD 1080P] Rampant (2018) นครนรกซอมบี้คลั่ง

Rampant.2018.1080px264.AAC[Load2up.com].mkv
Format : Matroska
Format version : Version 4 / Version 2
File size : 2.15 GiB
Duration : 2 h 1 min
Overall bit rate : 2 532 kb/s
Encoded date : UTC 2018-11-23 09:06:03
Writing application : mkvmerge v28.2.0 (‘The Awakening’) 64-bit
Writing library : libebml v1.3.6 + libmatroska v1.4.9

Video
ID : 1
Format : AVC
Format/Info : Advanced Video Codec
Format profile : [email protected]
Format settings, CABAC : Yes
Format settings, ReFrames : 1 frame
Format settings, GOP : M=1, N=48
Codec ID : V_MPEG4/ISO/AVC
Duration : 2 h 1 min
Bit rate : 2 402 kb/s
Width : 1 920 pixels
Height : 804 pixels
Display aspect ratio : 2.40:1
Frame rate mode : Constant
Frame rate : 23.976 (24000/1001) FPS
Color space : YUV
Chroma subsampling : 4:2:0
Bit depth : 8 bits
Scan type : Progressive
Bits/(Pixel*Frame) : 0.065
Stream size : 2.04 GiB (95%)
Default : Yes
Forced : No
Color range : Limited
Color primaries : BT.709
Transfer characteristics : BT.709
Matrix coefficients : BT.709

Audio
ID : 2
Format : AAC
Format/Info : Advanced Audio Codec
Format profile : LC
Codec ID : A_AAC
Duration : 2 h 1 min
Bit rate : 128 kb/s
Channel(s) : 2 channels
Channel positions : Front: L R
Sampling rate : 44.1 kHz
Frame rate : 43.066 FPS (1024 spf)
Compression mode : Lossy
Stream size : 111 MiB (5%)
Title : Thairong 2.0
Language : Thai
Default : Yes
Forced : No



หมายเหตุ ทุกเว็บโหลดแทนกันได้ แต่ต้องเปลี่ยนชื่อให้เรียงกันด้วย

สำหรับสมาชิก VIP เท่านั้น!

[restrict …]

|——————————————————————|

|——————————————————————|

[/restrict]