[MINI-HD 1080P] Railroad Tigers (2016) ใหญ่ ปล้น ฟัด [พากย์ไทย 5.1 + เสียงจีน 5.1] [MKV] [ONE2UP] [Filefenix]

[MINI-HD 1080P] Railroad Tigers (2016) ใหญ่ ปล้น ฟัด

Railroad Tigers สร้างจากเหตุการณ์จริงของกลุ่มนักรบที่ออกปฏิบัติการณ์บนทางรถไฟ ในมณฑลซานตง ในช่วงปี 1940 ระหว่างสงครามแปซิฟิก พวกเขาออกปล้นเสบียงของกองทัพญี่ปุ่น โดยเหล่าทหารญี่ปุ่นไม่ได้เอะใจ ชาวบ้านขนานนามพวกเขาว่า “พยัคฆ์รถไฟ” โดยสมาชิกส่วนใหญ่เป็นพนักงานรถไฟที่สถานีรถไฟท้องถิ่น นำโดยหม่าหยวน (เฉินหลง) พวกเขาเชื่อว่าแม้จะเป็นชาวบ้านธรรมดา พวกเขาก็สามารถทำสิ่งที่พิเศษสำเร็จได้ พวกเขากำลังวางแผนที่จะระเบิดสะพานสำคัญที่จะตัดการขนส่งเสบียงของกองทัพญี่ปุ่นได้

Railroad.Tigers.2016.WEB-DL.1080p.AC3.x264[Load2up.com].mkv
Format : Matroska
Format version : Version 4 / Version 2
File size : 5.86 GiB
Duration : 2 h 4 min
Overall bit rate : 6 746 kb/s
Movie name : Railroad.Tigers.2016.WEB-DL.1080p.AC3.x264
Encoded date : UTC 2010-02-22 21:41:31
Writing application : mkvmerge v5.9.0 (‘On The Loose’) built on Dec 9 2012 15:37:01
Writing library : libebml v1.3.0 + libmatroska v1.4.0

Video
ID : 1
Format : AVC
Format/Info : Advanced Video Codec
Format profile : [email protected]
Format settings, CABAC : Yes
Format settings, ReFrames : 4 frames
Codec ID : V_MPEG4/ISO/AVC
Duration : 2 h 4 min
Bit rate : 6 000 kb/s
Width : 1 920 pixels
Height : 1 080 pixels
Display aspect ratio : 16:9
Frame rate mode : Constant
Frame rate : 24.000 FPS
Color space : YUV
Chroma subsampling : 4:2:0
Bit depth : 8 bits
Scan type : Progressive
Bits/(Pixel*Frame) : 0.121
Stream size : 5.02 GiB (86%)
Title : Railroad.Tigers.2016.WEB-DL.1080p.AC3.x264
Writing library : x264()-core 129 – H.264/MPEG-4
Language : Chinese
Default : Yes
Forced : No

Audio #1
ID : 2
Format : AC-3
Format/Info : Audio Coding 3
Mode extension : CM (complete main)
Format settings, Endianness : Big
Codec ID : A_AC3
Duration : 2 h 4 min
Bit rate mode : Constant
Bit rate : 448 kb/s
Channel(s) : 6 channels
Channel positions : Front: L C R, Side: L R, LFE
Sampling rate : 48.0 kHz
Frame rate : 31.250 FPS (1536 spf)
Bit depth : 16 bits
Compression mode : Lossy
Stream size : 398 MiB (7%)
Title : Thai DVD Master
Language : Thai
Default : Yes
Forced : Yes

Audio #2
ID : 3
Format : AC-3
Format/Info : Audio Coding 3
Mode extension : CM (complete main)
Format settings, Endianness : Big
Codec ID : A_AC3
Duration : 2 h 4 min
Bit rate mode : Constant
Bit rate : 384 kb/s
Channel(s) : 2 channels
Channel positions : Front: L R
Sampling rate : 48.0 kHz
Frame rate : 31.250 FPS (1536 spf)
Bit depth : 16 bits
Compression mode : Lossy
Stream size : 341 MiB (6%)
Title : Chinese
Language : Chinese
Default : No
Forced : No



หมายเหตุ ทุกเว็บโหลดแทนกันได้ แต่ต้องเปลี่ยนชื่อให้เรียงกันด้วย

สำหรับสมาชิก VIP เท่านั้น!

[restrict …]

cornfile.com

|——————————————————————|

|——————————————————————|

[/restrict]

%d bloggers like this: