[MINI-HD 1080P] Passengers (2016) คู่โดยสารพันล้านไมล์ [พากย์ไทย 5.1 + เสียงอังกฤษ DTS] [บรรยายไทย + อังกฤษ] [MASTER] [MKV] [ONE2UP]

[MINI-HD 1080P] Passengers (2016) คู่โดยสารพันล้านไมล์

ออโรร่า เลนส์ (Aurora Lane) และ เจมส์ พรีสัน (James Preston) สองผู้โดยสารที่กำลังจะเดินทางไปเริ่มต้นชีวิตใหม่ในดาวดวงใหม่ในห้วงอวกาศบนยาน อวาลอน โดยตามกำหนดการทั่งคู่จะต้องจากการจำศีลใน 120 ปีข้างหน้า แต่แล้วเกิดเหตุการณ์ที่ผิดคลาด พวกเขากลับตื่นขึ้นมาก่อนกำหนด 90 ปี มีเพียงเธอและเขาเท่านั้นที่ตื่นขึ้นบนยาน ความใกล้ชิด ทำให้ความรักของทั่งคู่ก่อตัวขึ้น ขณะที่ความรักของทั้งคู่กำลังเบ่งบาน พวกเขากลับค้นพบความจริงที่ว่า การที่เขาและเธอตื่นขึ้นมานั้น อาจจะไม่ใช่เรื่องบังเอิญ พวกเขาจะต้องทำทุกวิธีทางเพื่อรักษาชีวิตของคนในยานและพวกเขาทั้งคู่เอาไว้

{MINI Super-HQ}_Passengers.2016.1080p.BrRip.DTS.x264[Load2up.com].mkv
Format : Matroska
Format version : Version 4 / Version 2
File size : 3.89 GiB
Duration : 1 h 56 min
Overall bit rate : 4 794 kb/s
Movie name : {MINI Super-HQ}_Passengers.2016.1080p.BrRip.DTS.x264
Encoded date : UTC 2010-02-22 21:41:31
Writing application : mkvmerge v5.9.0 (‘On The Loose’) built on Dec 9 2012 15:37:01
Writing library : libebml v1.3.0 + libmatroska v1.4.0

Video
ID : 1
Format : AVC
Format/Info : Advanced Video Codec
Format profile : High@L4
Format settings, CABAC : Yes
Format settings, ReFrames : 4 frames
Codec ID : V_MPEG4/ISO/AVC
Duration : 1 h 56 min
Bit rate : 3 333 kb/s
Width : 1 920 pixels
Height : 804 pixels
Display aspect ratio : 2.40:1
Frame rate mode : Constant
Frame rate : 23.976 (24000/1001) FPS
Color space : YUV
Chroma subsampling : 4:2:0
Bit depth : 8 bits
Scan type : Progressive
Bits/(Pixel*Frame) : 0.090
Stream size : 2.68 GiB (69%)
Title : {MINI Super-HQ}_Passengers.2016.1080p.BrRip.DTS.x264
Writing library : x264 core 130 r2273 b3065e6
Language : English
Default : Yes
Forced : No
Color range : Limited
Color primaries : BT.709
Transfer characteristics : BT.709
Matrix coefficients : BT.709

Audio #1
ID : 2
Format : AC-3
Format/Info : Audio Coding 3
Mode extension : CM (complete main)
Format settings, Endianness : Big
Codec ID : A_AC3
Duration : 1 h 56 min
Bit rate mode : Constant
Bit rate : 640 kb/s
Channel(s) : 6 channels
Channel positions : Front: L C R, Side: L R, LFE
Sampling rate : 48.0 kHz
Frame rate : 31.250 FPS (1536 spf)
Bit depth : 16 bits
Compression mode : Lossy
Stream size : 532 MiB (13%)
Title : Thai BluRay Master
Language : Thai
Default : Yes
Forced : Yes

Audio #2
ID : 3
Format : DTS
Format/Info : Digital Theater Systems
Mode : 16
Format settings, Endianness : Big
Codec ID : A_DTS
Duration : 1 h 56 min
Bit rate mode : Constant
Bit rate : 755 kb/s
Channel(s) : 6 channels
Channel positions : Front: L C R, Side: L R, LFE
Sampling rate : 48.0 kHz
Frame rate : 93.750 FPS (512 spf)
Bit depth : 24 bits
Compression mode : Lossy
Stream size : 627 MiB (16%)
Title : English DTS
Language : English
Default : No
Forced : No

Text #1
ID : 4
Format : VobSub
Codec ID : S_VOBSUB
Codec ID/Info : Picture based subtitle format used on DVDs
Title : Thai 480p
Language : Thai
Default : No
Forced : No

Text #2
ID : 5
Format : VobSub
Codec ID : S_VOBSUB
Codec ID/Info : Picture based subtitle format used on DVDs
Title : Thai 720p
Language : Thai
Default : No
Forced : No

Text #3
ID : 6
Format : VobSub
Codec ID : S_VOBSUB
Codec ID/Info : Picture based subtitle format used on DVDs
Title : Thai 1080p
Language : Thai
Default : Yes
Forced : Yes

Text #4
ID : 7
Format : VobSub
Codec ID : S_VOBSUB
Codec ID/Info : Picture based subtitle format used on DVDs
Title : Thai 1080p Yellow
Language : Thai
Default : No
Forced : No

Text #5
ID : 8
Format : VobSub
Codec ID : S_VOBSUB
Codec ID/Info : Picture based subtitle format used on DVDs
Title : Thai 1080p Out
Language : Thai
Default : No
Forced : No

Text #6
ID : 9
Format : VobSub
Codec ID : S_VOBSUB
Codec ID/Info : Picture based subtitle format used on DVDs
Title : Thai 1080p BIG
Language : Thai
Default : No
Forced : No

Text #7
ID : 10
Format : VobSub
Codec ID : S_VOBSUB
Codec ID/Info : Picture based subtitle format used on DVDs
Title : Thai 1080p Out [BIG] Language : Thai
Default : No
Forced : No

Text #8
ID : 11
Format : PGS
Codec ID : S_HDMV/PGS
Codec ID/Info : Picture based subtitle format used on BDs/HD-DVDs
Title : Thai PGS BluRay Master
Language : Thai
Default : No
Forced : No

Text #9
ID : 12
Format : PGS
Codec ID : S_HDMV/PGS
Codec ID/Info : Picture based subtitle format used on BDs/HD-DVDs
Title : Thai PGS Out
Language : Thai
Default : No
Forced : No

Text #10
ID : 13
Format : UTF-8
Codec ID : S_TEXT/UTF8
Codec ID/Info : UTF-8 Plain Text
Title : English
Language : English
Default : No
Forced : No



หมายเหตุ ทุกเว็บโหลดแทนกันได้ แต่ต้องเปลี่ยนชื่อให้เรียงกันด้วย

สำหรับสมาชิก VIP เท่านั้น!

%d bloggers like this: