[MINI-HD 1080P] Earthfall (2015) วันโลกดับ [พากย์ไทย 5.1 + เสียงอังกฤษ] [บรรยายไทย + อังกฤษ] [MASTER] [MKV] [ONE2UP]

[MINI-HD 1080P] Earthfall (2015) วันโลกดับ

Earthfall: อุกกาบาตขนาดยักษ์ได้พุ่งผ่านระบบสุริยะจักรวาล แต่แรงดึงดูดของโลกได้ดึงพวกมันตกลงมา สร้างหายนะให้แก่หลายเมืองหลวงทั่วโลกผู้คนล้มตายมหาศาล สตีฟ แลนนอนคุณพ่อพลัดหลงขณะหนีตาย พยายามตามหาภรรยาและลูกสาวเพื่อกลับมาอยู่ร่วมกันพร้อมหน้า แต่เมื่อเขาถลำเข้าไปรู้ถึงแผนของรัฐบาล พวกเขาได้รู้ว่ารัฐบาลก็มีแผนสุดอันตรายที่กำลังเอาโลกไปเสี่ยงต่อการถูกทำลายล้างเช่นกัน!!!

{MINI Super-HQ}_Earthfall.2015.1080p.BrRip.DTS.x264[Load2up.com].mkv
Format : Matroska
Format version : Version 4 / Version 2
File size : 3.90 GiB
Duration : 1 h 28 min
Overall bit rate : 6 272 kb/s
Movie name : {MINI Super-HQ}_Earthfall.2015.1080p.BrRip.DTS.x264
Encoded date : UTC 2010-02-22 21:41:31
Writing application : mkvmerge v5.9.0 (‘On The Loose’) built on Dec 9 2012 15:37:01
Writing library : libebml v1.3.0 + libmatroska v1.4.0

Video
ID : 1
Format : AVC
Format/Info : Advanced Video Codec
Format profile : High@L4
Format settings, CABAC : Yes
Format settings, ReFrames : 4 frames
Codec ID : V_MPEG4/ISO/AVC
Duration : 1 h 28 min
Bit rate : 4 999 kb/s
Width : 1 916 pixels
Height : 1 080 pixels
Display aspect ratio : 16:9
Frame rate mode : Constant
Frame rate : 23.976 (24000/1001) FPS
Color space : YUV
Chroma subsampling : 4:2:0
Bit depth : 8 bits
Scan type : Progressive
Bits/(Pixel*Frame) : 0.101
Stream size : 3.10 GiB (80%)
Title : {MINI Super-HQ}_Earthfall.2015.1080p.BrRip.DTS.x264
Writing library : x264 core 130 r2273 b3065e6
Language : English
Default : Yes
Forced : No
Color range : Limited
Color primaries : BT.709
Transfer characteristics : BT.709
Matrix coefficients : BT.709

Audio #1
ID : 2
Format : AC-3
Format/Info : Audio Coding 3
Mode extension : CM (complete main)
Format settings, Endianness : Big
Codec ID : A_AC3
Duration : 1 h 28 min
Bit rate mode : Constant
Bit rate : 384 kb/s
Channel(s) : 6 channels
Channel positions : Front: L C R, Side: L R, LFE
Sampling rate : 48.0 kHz
Frame rate : 31.250 FPS (1536 spf)
Bit depth : 16 bits
Compression mode : Lossy
Stream size : 244 MiB (6%)
Title : Thai DVD Master
Language : Thai
Default : Yes
Forced : Yes

Audio #2
ID : 3
Format : DTS
Format/Info : Digital Theater Systems
Mode : 16
Format settings, Endianness : Big
Codec ID : A_DTS
Duration : 1 h 28 min
Bit rate mode : Constant
Bit rate : 768 kb/s
Channel(s) : 6 channels
Channel positions : Front: L C R, Side: L R, LFE
Sampling rate : 48.0 kHz
Frame rate : 93.750 FPS (512 spf)
Bit depth : 24 bits
Compression mode : Lossy
Stream size : 488 MiB (12%)
Title : English DTS
Language : English
Default : No
Forced : No

Text #1
ID : 4
Format : VobSub
Codec ID : S_VOBSUB
Codec ID/Info : Picture based subtitle format used on DVDs
Title : Thai 480p From DVD Master
Language : Thai
Default : No
Forced : No

Text #2
ID : 5
Format : VobSub
Codec ID : S_VOBSUB
Codec ID/Info : Picture based subtitle format used on DVDs
Title : Thai 720p
Language : Thai
Default : No
Forced : No

Text #3
ID : 6
Format : VobSub
Codec ID : S_VOBSUB
Codec ID/Info : Picture based subtitle format used on DVDs
Title : Thai 1080p
Language : Thai
Default : Yes
Forced : Yes

Text #4
ID : 7
Format : VobSub
Codec ID : S_VOBSUB
Codec ID/Info : Picture based subtitle format used on DVDs
Title : Thai 1080p Yellow
Language : Thai
Default : No
Forced : No

Text #5
ID : 8
Format : VobSub
Codec ID : S_VOBSUB
Codec ID/Info : Picture based subtitle format used on DVDs
Title : Thai 1080p BIG
Language : Thai
Default : No
Forced : No

Text #6
ID : 9
Format : PGS
Codec ID : S_HDMV/PGS
Codec ID/Info : Picture based subtitle format used on BDs/HD-DVDs
Title : Thai PGS
Language : Thai
Default : No
Forced : No

Text #7
ID : 10
Format : PGS
Codec ID : S_HDMV/PGS
Codec ID/Info : Picture based subtitle format used on BDs/HD-DVDs
Title : Thai PGS Yellow
Language : Thai
Default : No
Forced : No

Text #8
ID : 11
Format : VobSub
Codec ID : S_VOBSUB
Codec ID/Info : Picture based subtitle format used on DVDs
Title : English
Language : English
Default : No
Forced : No



หมายเหตุ ทุกเว็บโหลดแทนกันได้ แต่ต้องเปลี่ยนชื่อให้เรียงกันด้วย

สำหรับสมาชิก VIP เท่านั้น!

%d bloggers like this: