[MINI-HD 1080P] Our Time Will Come (2017) สู้เพื่อฝัน วันปลดแอก [เสียงจีน 5.1 + พากย์ไทย Master] [บรรยาย อังกฤษ Master] [MASTER] [MKV]

Our Time Will Come (2017) สู้เพื่อฝัน วันปลดแอก

{MINI Super-HQ}_Our.Time.Will.Come.(2017).1080p.BluRay.x264.Load2up.com.mkv
Format : Matroska
Format version : Version 4
File size : 4.31 GiB
Duration : 2 h 10 min
Overall bit rate : 4 724 kb/s
Movie name : {MINI Super-HQ}_Our.Time.Will.Come.(2017).1080p.BluRay.x264
Encoded date : UTC 2020-05-30 15:13:55
Writing application : mkvmerge v9.8.0 (‘Kuglblids’) 64bit
Writing library : libebml v1.3.4 + libmatroska v1.4.5

Video
ID : 1
Format : AVC
Format/Info : Advanced Video Codec
Format profile : [email protected]
Format settings : CABAC / 4 Ref Frames
Format settings, CABAC : Yes
Format settings, ReFrames : 4 frames
Codec ID : V_MPEG4/ISO/AVC
Duration : 2 h 10 min
Bit rate : 3 031 kb/s
Width : 1 920 pixels
Height : 802 pixels
Display aspect ratio : 2.40:1
Frame rate mode : Constant
Frame rate : 24.000 FPS
Color space : YUV
Chroma subsampling : 4:2:0
Bit depth : 8 bits
Scan type : Progressive
Bits/(Pixel*Frame) : 0.082
Stream size : 2.77 GiB (64%)
Title : {MINI Super-HQ}_Our.Time.Will.Come.(2017).1080p.BluRay.x264
Writing library : x264 core 130 r2273 b3065e6
Language : Chinese
Default : Yes
Forced : Yes
Color range : Limited
Color primaries : BT.709
Transfer characteristics : BT.709
Matrix coefficients : BT.709

Audio #1
ID : 2
Format : AC-3
Format/Info : Audio Coding 3
Commercial name : Dolby Digital
Codec ID : A_AC3
Duration : 2 h 10 min
Bit rate mode : Constant
Bit rate : 384 kb/s
Channel(s) : 2 channels
Channel layout : L R
Sampling rate : 48.0 kHz
Frame rate : 31.250 FPS (1536 SPF)
Bit depth : 16 bits
Compression mode : Lossy
Stream size : 359 MiB (8%)
Title : Thai Master
Language : Thai
Service kind : Complete Main
Default : Yes
Forced : Yes

Audio #2
ID : 3
Format : AC-3
Format/Info : Audio Coding 3
Commercial name : Dolby Digital
Codec ID : A_AC3
Duration : 2 h 10 min
Bit rate mode : Constant
Bit rate : 640 kb/s
Channel(s) : 6 channels
Channel layout : L R C LFE Ls Rs
Sampling rate : 48.0 kHz
Frame rate : 31.250 FPS (1536 SPF)
Bit depth : 16 bits
Compression mode : Lossy
Stream size : 598 MiB (14%)
Title : Chinese (Mandarin) 5.1
Language : Chinese
Service kind : Complete Main
Default : No
Forced : No

Audio #3
ID : 4
Format : AC-3
Format/Info : Audio Coding 3
Commercial name : Dolby Digital
Codec ID : A_AC3
Duration : 2 h 10 min
Bit rate mode : Constant
Bit rate : 640 kb/s
Channel(s) : 6 channels
Channel layout : L R C LFE Ls Rs
Sampling rate : 48.0 kHz
Frame rate : 31.250 FPS (1536 SPF)
Bit depth : 16 bits
Compression mode : Lossy
Stream size : 598 MiB (14%)
Title : Chinese (Cantonese) 5.1
Language : Chinese
Service kind : Complete Main
Default : No
Forced : No

Text #1
ID : 5
Format : VobSub
Codec ID : S_VOBSUB
Codec ID/Info : Picture based subtitle format used on DVDs
Duration : 33 s 314 ms
Bit rate : 2 967 b/s
Count of elements : 1
Stream size : 12.1 KiB (0%)
Language : Thai
Default : Yes
Forced : Yes

Text #2
ID : 6
Format : PGS
Codec ID : S_HDMV/PGS
Codec ID/Info : Picture based subtitle format used on BDs/HD-DVDs
Duration : 2 h 4 min
Bit rate : 27.3 kb/s
Count of elements : 2533
Stream size : 24.3 MiB (1%)
Title : English
Language : English
Default : No
Forced : No



หมายเหตุ ทุกเว็บโหลดแทนกันได้ แต่ต้องเปลี่ยนชื่อให้เรียงกันด้วย


สำหรับสมาชิก VIP เท่านั้น!

[restrict …]

|——————————————————————|

|——————————————————————|

[/restrict]