[MINI-HD 1080P] Operation Finale (2018) ปฏิบัติการปิดฉากปิศาจนาซี [Soundtrack บรรยายไทย + อังกฤษ] [MKV] [ONE2UP]

[MINI-HD 1080P] Operation Finale (2018) ปฏิบัติการปิดฉากปิศาจนาซี

Operation Finale (2018)[Load2up.com].mkv
Format : Matroska
Format version : Version 4 / Version 2
File size : 2.89 GiB
Duration : 2 h 3 min
Overall bit rate : 3 342 kb/s
Encoded date : UTC 2018-10-04 15:54:52
Writing application : mkvmerge v27.0.0 (‘Metropolis’) 64-bit
Writing library : libebml v1.3.6 + libmatroska v1.4.9

Video
ID : 1
Format : AVC
Format/Info : Advanced Video Codec
Format profile : [email protected]
Format settings, CABAC : Yes
Format settings, ReFrames : 3 frames
Codec ID : V_MPEG4/ISO/AVC
Duration : 2 h 3 min
Bit rate : 3 130 kb/s
Width : 1 920 pixels
Height : 1 080 pixels
Display aspect ratio : 16:9
Frame rate mode : Constant
Frame rate : 23.976 (24000/1001) FPS
Color space : YUV
Chroma subsampling : 4:2:0
Bit depth : 8 bits
Scan type : Progressive
Bits/(Pixel*Frame) : 0.063
Stream size : 2.70 GiB (94%)
Language : English
Default : Yes
Forced : No

Audio
ID : 2
Format : E-AC-3
Format/Info : Enhanced Audio Coding 3
Format settings, Endianness : Big
Codec ID : A_EAC3
Duration : 2 h 3 min
Bit rate mode : Constant
Bit rate : 192 kb/s
Channel(s) : 6 channels
Channel positions : Front: L C R, Side: L R, LFE
Sampling rate : 48.0 kHz
Frame rate : 187.500 FPS (256 spf)
Compression mode : Lossy
Delay relative to video : -41 ms
Stream size : 170 MiB (6%)
Language : English
Service kind : Complete Main
Default : Yes
Forced : No

Text #1
ID : 3
Format : PGS
Muxing mode : zlib
Codec ID : S_HDMV/PGS
Codec ID/Info : Picture based subtitle format used on BDs/HD-DVDs
Duration : 2 h 2 min
Bit rate : 35.2 kb/s
Count of elements : 2638
Stream size : 30.8 MiB (1%)
Title : Thai (PGS)
Language : Thai
Default : Yes
Forced : No

Text #2
ID : 4
Format : VobSub
Muxing mode : zlib
Codec ID : S_VOBSUB
Codec ID/Info : Picture based subtitle format used on DVDs
Duration : 2 h 2 min
Bit rate : 8 781 b/s
Count of elements : 1319
Stream size : 7.67 MiB (0%)
Title : Thai (VobSub)
Language : Thai
Default : No
Forced : No

Text #3
ID : 5
Format : UTF-8
Codec ID : S_TEXT/UTF8
Codec ID/Info : UTF-8 Plain Text
Duration : 1 h 57 min
Bit rate : 59 b/s
Count of elements : 1492
Stream size : 51.5 KiB (0%)
Title : Eng (SRT)
Language : English
Default : No
Forced : No



หมายเหตุ ทุกเว็บโหลดแทนกันได้ แต่ต้องเปลี่ยนชื่อให้เรียงกันด้วย

สำหรับสมาชิก VIP เท่านั้น!

[restrict …]

|——————————————————————|

|——————————————————————|

[/restrict]

%d bloggers like this: