[MINI-HD 1080P] Motherless Brooklyn (2019) สืบกระตุก โค่นอิทธิพลมืด [พากย์ไทย+อังกฤษ] [SubThai+Eng] [MKV]

Motherless Brooklyn (2019) สืบกระตุก โค่นอิทธิพลมืด

Motherless.Brooklyn.2019.1080p.WEB-DL.DDP5.1.Th Mst[Load2up.com].mkv
Format : Matroska
Format version : Version 4
File size : 3.98 GiB
Duration : 2 h 24 min
Overall bit rate : 3 950 kb/s
Movie name : Motherless.Brooklyn.2019.1080p.WEB-DL.DDP5.1.Th
Encoded date : UTC 2020-03-29 14:29:30
Writing application : mkvmerge v44.0.0 (‘Domino’) 64-bit
Writing library : libebml v1.3.10 + libmatroska v1.5.2
Cover : Yes
Attachments : cover.jpg / cover

Video
ID : 1
Format : AVC
Format/Info : Advanced Video Codec
Format profile : [email protected]
Format settings : CABAC / 1 Ref Frames
Format settings, CABAC : Yes
Format settings, ReFrames : 1 frame
Format settings, GOP : M=1, N=25
Codec ID : V_MPEG4/ISO/AVC
Duration : 2 h 24 min
Bit rate mode : Constant
Bit rate : 3 000 kb/s
Width : 1 920 pixels
Height : 1 040 pixels
Display aspect ratio : 1.85:1
Frame rate mode : Constant
Frame rate : 29.970 (30000/1001) FPS
Color space : YUV
Chroma subsampling : 4:2:0
Bit depth : 8 bits
Scan type : Progressive
Bits/(Pixel*Frame) : 0.050
Stream size : 3.02 GiB (76%)
Title : Motherless.Brooklyn.2019.1080p.WEB-DL.DDP5.1.Th
Language : English
Default : Yes
Forced : No

Audio #1
ID : 2
Format : AC-3
Format/Info : Audio Coding 3
Commercial name : Dolby Digital
Codec ID : A_AC3
Duration : 2 h 24 min
Bit rate mode : Constant
Bit rate : 256 kb/s
Channel(s) : 2 channels
Channel layout : L R
Sampling rate : 44.1 kHz
Frame rate : 28.711 FPS (1536 SPF)
Bit depth : 16 bits
Compression mode : Lossy
Stream size : 264 MiB (6%)
Title : 2.0 AC3 Th 256k 264m
Language : Thai
Service kind : Complete Main
Default : Yes
Forced : No

Audio #2
ID : 3
Format : E-AC-3
Format/Info : Enhanced AC-3
Commercial name : Dolby Digital Plus
Codec ID : A_EAC3
Duration : 2 h 24 min
Bit rate mode : Constant
Bit rate : 640 kb/s
Channel(s) : 6 channels
Channel layout : L R C LFE Ls Rs
Sampling rate : 48.0 kHz
Frame rate : 31.250 FPS (1536 SPF)
Compression mode : Lossy
Stream size : 661 MiB (16%)
Title : 6.1 AC3 EN 640K 661M
Language : English
Service kind : Complete Main
Default : No
Forced : No

Text #1
ID : 4
Format : PGS
Muxing mode : zlib
Codec ID : S_HDMV/PGS
Codec ID/Info : Picture based subtitle format used on BDs/HD-DVDs
Duration : 2 h 23 min
Bit rate : 31.0 kb/s
Count of elements : 4720
Stream size : 31.9 MiB (1%)
Title : TH.PGS.WHITE.73-70-10
Language : Thai
Default : Yes
Forced : No

Text #2
ID : 5
Format : PGS
Muxing mode : zlib
Codec ID : S_HDMV/PGS
Codec ID/Info : Picture based subtitle format used on BDs/HD-DVDs
Duration : 2 h 17 min
Bit rate : 34.4 kb/s
Count of elements : 5136
Stream size : 33.7 MiB (1%)
Title : EN.PGS.PURPLE.85-60-10
Language : English
Default : No
Forced : No

Text #3
ID : 6
Format : PGS
Muxing mode : zlib
Codec ID : S_HDMV/PGS
Codec ID/Info : Picture based subtitle format used on BDs/HD-DVDs
Duration : 2 h 16 min
Bit rate : 36.0 kb/s
Count of elements : 4930
Stream size : 35.3 MiB (1%)
Title : EN.SDH.PGS.ORENG.85-60-10
Language : English
Default : No
Forced : No



หมายเหตุ ทุกเว็บโหลดแทนกันได้ แต่ต้องเปลี่ยนชื่อให้เรียงกันด้วย


สำหรับสมาชิก VIP เท่านั้น!

[restrict …]

|——————————————————————|

|——————————————————————|

[/restrict]

%d bloggers like this: