[MINI-HD 1080P] Logan (2017) โลแกน เดอะ วูล์ฟเวอรีน [พากย์ไทย5.1 +พากย์อังกฤษDTS] [บรรยาย:ไทย+อังกฤษ] [MASTER] [MKV] [ONE2UP] [Filefenix]

[MINI-HD 1080P] Logan (2017) โลแกน เดอะ วูล์ฟเวอรีน

เรื่องราวที่เกิดขึ้นในปี 2029 มนุษย์กลายพันธุ์ตกอยู่ในภาวะใกล้สาบสูญ โลแกนผู้โดดเดี่ยวท้อแท้ได้แต่ดื่มเหล้าไปวันๆ ในที่หลบภัยอันห่างไกลแถบชายแดนเม็กซิโกและหารายได้เล็กๆ น้อยๆ จากการเป็นคนขับรถรับจ้าง เพื่อนผู้ลี้ภัยของเขาคือแคลิแบนผู้ถูกเนรเทศ รวมถึงศาสตราจารย์เอ็กซ์ซึ่งกำลังป่วยและพลังจิตถูกรบกวนจากอาการชักที่หนักขึ้นเรื่อยๆ แต่แล้วโลแกนกลับต้องล้มเลิกความตั้งใจที่จะหลบเลี่ยงโลกภายนอกและชีวิตที่ผ่านมา เมื่อหญิงลึกลับปรากฏตัวขึ้นพร้อมคำขอร้องเร่งด่วน เธอขอให้โลแกนช่วยพาเด็กสาวที่มีความพิเศษคนหนึ่งไปส่งยังที่ปลอดภัย ในไม่ช้าโลแกนก็ต้องใช้กรงเล็บเพื่อเผชิญกับพลังมืดและวายร้ายจากอดีตของเขาเองในภารกิจเสี่ยงตาย ภารกิจครั้งนี้จะนำนักสู้ผู้ผ่านกาลเวลามาเนิ่นนานสู่หนทางเพื่อบรรลุโชคชะตาของตนเอง

{MINI Super-HQ}_LOGAN.2017.1080p.BrRip.DTS.x264.THB[Load2up.com].mkv
Format : Matroska
Format version : Version 4 / Version 2
File size : 4.18 GiB
Duration : 2 h 17 min
Overall bit rate : 4 351 kb/s
Movie name : {MINI Super-HQ}_LOGAN.2017.1080p.BrRip.DTS.x264.THB
Encoded date : UTC 2010-02-22 21:41:31
Writing application : mkvmerge v5.9.0 (‘On The Loose’) built on Dec 9 2012 15:37:01
Writing library : libebml v1.3.0 + libmatroska v1.4.0

Video
ID : 1
Format : AVC
Format/Info : Advanced Video Codec
Format profile : High@L4
Format settings, CABAC : Yes
Format settings, ReFrames : 4 frames
Codec ID : V_MPEG4/ISO/AVC
Duration : 2 h 17 min
Bit rate : 3 003 kb/s
Width : 1 920 pixels
Height : 800 pixels
Display aspect ratio : 2.40:1
Frame rate mode : Constant
Frame rate : 23.976 FPS
Color space : YUV
Chroma subsampling : 4:2:0
Bit depth : 8 bits
Scan type : Progressive
Bits/(Pixel*Frame) : 0.082
Stream size : 2.94 GiB (70%)
Title : {MINI Super-HQ}_LOGAN.2017.1080p.BrRip.DTS.x264.THB
Writing library : x264 core 130 r2273 b3065e6
Language : English
Default : Yes
Forced : No
Color range : Limited
Color primaries : BT.709
Transfer characteristics : BT.709
Matrix coefficients : BT.709

Audio #1
ID : 2
Format : AC-3
Format/Info : Audio Coding 3
Format settings, Endianness : Big
Codec ID : A_AC3
Duration : 2 h 17 min
Bit rate mode : Constant
Bit rate : 448 kb/s
Channel(s) : 6 channels
Channel positions : Front: L C R, Side: L R, LFE
Sampling rate : 48.0 kHz
Frame rate : 31.250 FPS (1536 spf)
Bit depth : 16 bits
Compression mode : Lossy
Stream size : 440 MiB (10%)
Title : Thai BluRay Master
Language : Thai
Service kind : Complete Main
Default : Yes
Forced : Yes

Audio #2
ID : 3
Format : DTS
Format/Info : Digital Theater Systems
Mode : 16
Format settings, Endianness : Big
Codec ID : A_DTS
Duration : 2 h 17 min
Bit rate mode : Constant
Bit rate : 755 kb/s
Channel(s) : 6 channels
Channel positions : Front: L C R, Side: L R, LFE
Sampling rate : 48.0 kHz
Frame rate : 93.750 FPS (512 spf)
Bit depth : 24 bits
Compression mode : Lossy
Stream size : 741 MiB (17%)
Title : English DTS
Language : English
Default : No
Forced : No

Text #1
ID : 4
Format : VobSub
Codec ID : S_VOBSUB
Codec ID/Info : Picture based subtitle format used on DVDs
Title : Thai 480p
Language : Thai
Default : No
Forced : No

Text #2
ID : 5
Format : VobSub
Codec ID : S_VOBSUB
Codec ID/Info : Picture based subtitle format used on DVDs
Title : Thai 1080p
Language : Thai
Default : Yes
Forced : Yes

Text #3
ID : 6
Format : VobSub
Codec ID : S_VOBSUB
Codec ID/Info : Picture based subtitle format used on DVDs
Title : Thai 1080p Yellow
Language : Thai
Default : No
Forced : No

Text #4
ID : 7
Format : VobSub
Codec ID : S_VOBSUB
Codec ID/Info : Picture based subtitle format used on DVDs
Title : Thai 1080p Out
Language : Thai
Default : No
Forced : No

Text #5
ID : 8
Format : VobSub
Codec ID : S_VOBSUB
Codec ID/Info : Picture based subtitle format used on DVDs
Title : Thai 1080p BIG
Language : Thai
Default : No
Forced : No

Text #6
ID : 9
Format : VobSub
Codec ID : S_VOBSUB
Codec ID/Info : Picture based subtitle format used on DVDs
Title : Thai 1080p Out [BIG] Language : Thai
Default : No
Forced : No

Text #7
ID : 10
Format : PGS
Codec ID : S_HDMV/PGS
Codec ID/Info : Picture based subtitle format used on BDs/HD-DVDs
Title : Thai PGS BluRay Master
Language : Thai
Default : No
Forced : No

Text #8
ID : 11
Format : PGS
Codec ID : S_HDMV/PGS
Codec ID/Info : Picture based subtitle format used on BDs/HD-DVDs
Title : Thai PGS Yellow
Language : Thai
Default : No
Forced : No

Text #9
ID : 12
Format : PGS
Codec ID : S_HDMV/PGS
Codec ID/Info : Picture based subtitle format used on BDs/HD-DVDs
Title : Thai PGS Out
Language : Thai
Default : No
Forced : No

Text #10
ID : 13
Format : PGS
Codec ID : S_HDMV/PGS
Codec ID/Info : Picture based subtitle format used on BDs/HD-DVDs
Title : English
Language : English
Default : No
Forced : No



หมายเหตุ ทุกเว็บโหลดแทนกันได้ แต่ต้องเปลี่ยนชื่อให้เรียงกันด้วย

Cloud2free

สำหรับสมาชิก VIP เท่านั้น!

%d bloggers like this: