[MINI-HD 1080P] Kidnap (2017) ล่าหยุดนรก [พากย์ไทยโรง + อังกฤษ 5.1] [ซับไทย + อังกฤษ] [MKV] [ONE2UP] [Filefenix]

[MINI-HD 1080P] Kidnap (2017) ล่าหยุดนรก

Kidnap ล่าหยุดนรก ภาพยนตร์แนวระทึกขวัญ ผลงานล่าสุดของ ฮัลลี่ เบอร์ลี่ เรื่องราวของหญิงสาวผู้เป็นแม่ คาร์ล่า (ฮัลลี่ เบอร์รี) กับลูกชายสุดที่รักวัย 8 ขวบ แฟรงกี้ (เซจ คอร์เรีย) ที่ถูกจับตัวไปต่อหน้าต่อตา เรื่องราวดุเดือดยิ่งขึ้น เมื่อมีเด็กมากมายถูกลักพาตัว แต่ตำรวจไม่สามารถจับตัวคนร้ายได้ เธอจึงลงมือออกตามล่า เพื่อล่าตัวมัน ไปลงสู่ “นรก”

Kidnap.2017.1080.WEB-DL.DD5.1.H264.ThaIRonG[Load2up.com].mkv
Format : Matroska
Format version : Version 4 / Version 2
File size : 3.40 GiB
Duration : 1 h 35 min
Overall bit rate : 5 120 kb/s
Encoded date : UTC 2017-07-08 13:31:41
Writing application : mkvmerge v10.0.0 (‘To Drown In You’) 64bit
Writing library : libebml v1.3.4 + libmatroska v1.4.5

Video
ID : 1
Format : AVC
Format/Info : Advanced Video Codec
Format profile : [email protected]
Format settings, CABAC : Yes
Format settings, ReFrames : 5 frames
Codec ID : V_MPEG4/ISO/AVC
Duration : 1 h 35 min
Bit rate : 4 542 kb/s
Width : 1 916 pixels
Height : 796 pixels
Display aspect ratio : 2.40:1
Frame rate mode : Constant
Frame rate : 24.000 FPS
Color space : YUV
Chroma subsampling : 4:2:0
Bit depth : 8 bits
Scan type : Progressive
Bits/(Pixel*Frame) : 0.124
Stream size : 3.02 GiB (89%)
Title : Kidnap.2017.1080.WEB-DL.DD5.1.H264.ThaIRonG
Language : English
Default : Yes
Forced : No
Color range : Limited
Color primaries : BT.709
Transfer characteristics : BT.709
Matrix coefficients : BT.709

Audio #1
ID : 2
Format : AAC
Format/Info : Advanced Audio Codec
Format profile : LC
Codec ID : A_AAC
Duration : 1 h 35 min
Bit rate : 192 kb/s
Channel(s) : 2 channels
Channel positions : Front: L R
Sampling rate : 44.1 kHz
Frame rate : 43.066 FPS (1024 spf)
Compression mode : Lossy
Stream size : 131 MiB (4%)
Title : AAC ThaiRong 2.0
Language : Thai
Default : Yes
Forced : No

Audio #2
ID : 3
Format : AC-3
Format/Info : Audio Coding 3
Format settings, Endianness : Big
Codec ID : A_AC3
Duration : 1 h 35 min
Bit rate mode : Constant
Bit rate : 384 kb/s
Channel(s) : 6 channels
Channel positions : Front: L C R, Side: L R, LFE
Sampling rate : 48.0 kHz
Frame rate : 31.250 FPS (1536 spf)
Bit depth : 16 bits
Compression mode : Lossy
Stream size : 261 MiB (7%)
Title : AC-3 English 5.1
Language : English
Service kind : Complete Main
Default : No
Forced : No

Text #1
ID : 4
Format : UTF-8
Codec ID : S_TEXT/UTF8
Codec ID/Info : UTF-8 Plain Text
Duration : 1 h 27 min
Bit rate : 67 b/s
Count of elements : 635
Stream size : 43.5 KiB (0%)
Title : Sub Thai
Language : Thai
Default : Yes
Forced : No

Text #2
ID : 5
Format : UTF-8
Codec ID : S_TEXT/UTF8
Codec ID/Info : UTF-8 Plain Text
Duration : 1 h 27 min
Bit rate : 30 b/s
Count of elements : 635
Stream size : 19.7 KiB (0%)
Title : Sub English
Language : English
Default : No
Forced : No



หมายเหตุ ทุกเว็บโหลดแทนกันได้ แต่ต้องเปลี่ยนชื่อให้เรียงกันด้วย

Cloud2free

สำหรับสมาชิก VIP เท่านั้น!

[restrict …]

|——————————————————————|

|——————————————————————|

[/restrict]

%d bloggers like this: