[MINI-HD 1080P] The Incredible Hulk (2008) มนุษย์ตัวเขียวจอมพลัง [พากย์ไทย 5.1 – อังกฤษ 5.1] [บรรยายไทย – อังกฤษ] [MASTER] [MKV] [ONE2UP]

[MINI-HD 1080P] The Incredible Hulk (2008) มนุษย์ตัวเขียวจอมพลัง

บรูซ แบนเนอร์ (เอ็ดเวิร์ด นอร์ตัน) นักวิทยาศาสตร์ที่ใช้ชีวิตอยู่ในเงามืดเอาแต่คิดค้นว ิธีเยียวยารักษาอารมณ์ ในขณะที่พวกกระหายสงครามก็ไม่ปล่อยให้เขาได้อยู่อย่า งสันติ หรือยอมให้ได้ใช้ชีวิตอย่างมีความสุขกับ เบตตี้ รอส (ลีฟ ไทเลอร์) หญิงคนรักของเขา ส่วนในโลกที่เต็มไปด้วยแสงสีและความศิวิไลซ์ ดิ แอ็บโดมิเนชั่น (ทิม ร็อธ) ก็ไล่ล่าคุณหมออัจฉริยะอย่างไม่ลดละ เขานี่แหละคืออสรพิษร้ายตัวฉกาจที่จะต่อกรกับ เดอะ ฮัค ให้ได้ ศึกระหว่างคู่อริจากหนังสือการ์ตูน ก็ประทุขึ้นเมื่อ บรูซ แบนเนอร์ จำเป็นต้องอาศัยพลังยอดมนุษย์ในตัวเข้าช่วยมหานครนิว ยอร์คที่ถูกถล่มแหลกลาญ!

The.Incredible.Hulk.2008.1080p.BluRay.AC3.x264[Load2up.com].mkv
Format : Matroska
Format version : Version 2
File size : 4.33 GiB
Duration : 1 h 52 min
Overall bit rate mode : Variable
Overall bit rate : 5 520 kb/s
Movie name : The.Incredible.Hulk.2008.1080p.BrRip.AC3.x264
Encoded date : UTC 2017-08-04 05:46:48
Writing application : mkvmerge v5.7.0 (‘The Whirlwind’) built on Jul 8 2012 20:08:51
Writing library : libebml v1.2.3 + libmatroska v1.3.0

Video
ID : 1
Format : AVC
Format/Info : Advanced Video Codec
Format profile : High@L4
Format settings, CABAC : Yes
Format settings, ReFrames : 4 frames
Muxing mode : Header stripping
Codec ID : V_MPEG4/ISO/AVC
Duration : 1 h 52 min
Bit rate mode : Variable
Bit rate : 4 386 kb/s
Maximum bit rate : 25.0 Mb/s
Width : 1 920 pixels
Height : 816 pixels
Display aspect ratio : 2.35:1
Frame rate mode : Constant
Frame rate : 23.976 (24000/1001) FPS
Color space : YUV
Chroma subsampling : 4:2:0
Bit depth : 8 bits
Scan type : Progressive
Bits/(Pixel*Frame) : 0.117
Stream size : 3.44 GiB (79%)
Title : ETRG
Writing library : x264 core 148 r2638 7599210
Default : Yes
Forced : No
Statistics Tags Issue : mkvmerge v7.7.0 (‘Six Voices’) 32bit built on Feb 28 2015 23:23:00 2016-02-04 10:46:24 / mkvmerge v5.7.0 (‘The Whirlwind’) built on Jul 8 2012 20:08:51 2017-08-04 05:46:48
FromStats_BitRate : 4484196
FromStats_Duration : 01:52:14.061000000
FromStats_FrameCount : 161456
FromStats_StreamSize : 3774606739

Audio #1
ID : 2
Format : AC-3
Format/Info : Audio Coding 3
Format settings, Endianness : Big
Muxing mode : Header stripping
Codec ID : A_AC3
Duration : 1 h 52 min
Bit rate mode : Constant
Bit rate : 576 kb/s
Channel(s) : 6 channels
Channel positions : Front: L C R, Side: L R, LFE
Sampling rate : 48.0 kHz
Frame rate : 31.250 FPS (1536 spf)
Bit depth : 16 bits
Compression mode : Lossy
Stream size : 462 MiB (10%)
Title : English AC3 5.1 at 576 Kbps_ETRG
Language : English
Service kind : Complete Main
Default : Yes
Forced : No
Statistics Tags Issue : mkvmerge v7.7.0 (‘Six Voices’) 32bit built on Feb 28 2015 23:23:00 2016-02-04 10:46:24 / mkvmerge v5.7.0 (‘The Whirlwind’) built on Jul 8 2012 20:08:51 2017-08-04 05:46:48
FromStats_BitRate : 576000
FromStats_Duration : 01:52:13.952000000
FromStats_FrameCount : 210436
FromStats_StreamSize : 484844544

Audio #2
ID : 3
Format : AC-3
Format/Info : Audio Coding 3
Format settings, Endianness : Big
Muxing mode : Header stripping
Codec ID : A_AC3
Duration : 1 h 52 min
Bit rate mode : Constant
Bit rate : 448 kb/s
Channel(s) : 6 channels
Channel positions : Front: L C R, Side: L R, LFE
Sampling rate : 48.0 kHz
Frame rate : 31.250 FPS (1536 spf)
Bit depth : 16 bits
Compression mode : Lossy
Stream size : 360 MiB (8%)
Title : Thai AC3 5.1 at 448 Kbps
Language : Thai
Service kind : Complete Main
Default : No
Forced : No

Text #1
ID : 4
Format : VobSub
Muxing mode : zlib
Codec ID : S_VOBSUB
Codec ID/Info : Picture based subtitle format used on DVDs
Title : Thai 480p Under
Language : Thai
Default : Yes
Forced : No

Text #2
ID : 5
Format : VobSub
Muxing mode : zlib
Codec ID : S_VOBSUB
Codec ID/Info : Picture based subtitle format used on DVDs
Title : Thai 1080p
Language : Thai
Default : No
Forced : No

Text #3
ID : 6
Format : VobSub
Muxing mode : zlib
Codec ID : S_VOBSUB
Codec ID/Info : Picture based subtitle format used on DVDs
Title : Thai 1080p Under
Language : Thai
Default : No
Forced : No

Text #4
ID : 7
Format : VobSub
Muxing mode : zlib
Codec ID : S_VOBSUB
Codec ID/Info : Picture based subtitle format used on DVDs
Title : English 1080p
Language : English
Default : No
Forced : No

Text #5
ID : 8
Format : VobSub
Muxing mode : zlib
Codec ID : S_VOBSUB
Codec ID/Info : Picture based subtitle format used on DVDs
Title : English 1080p Under
Language : English
Default : No
Forced : No

Text #6
ID : 9
Format : UTF-8
Codec ID : S_TEXT/UTF8
Codec ID/Info : UTF-8 Plain Text
Title : English SRT
Language : English
Default : No
Forced : No



หมายเหตุ ทุกเว็บโหลดแทนกันได้ แต่ต้องเปลี่ยนชื่อให้เรียงกันด้วย

สำหรับสมาชิก VIP เท่านั้น!

[restrict …]

|——————————————————————|

|——————————————————————|

[/restrict]

%d bloggers like this: