[MINI-HD 1080P] Inception (2010) จิตพิฆาตโลก [พากย์ไทย5.1+อังกฤษDTS] [SubThai+Eng] [MASTER] [MKV] [ONE2UP] [Filefenix]

[MINI-HD 1080P] Inception (2010) จิตพิฆาตโลก

Inception จิตพิฆาตโลก ยอดผู้สร้างภาพยนตร์ชื่อดัง คริสโตเฟอร์ โนแลน กำกับทีมดาราระดับโลกในภาพยนตร์แอ็คชั่นไซไฟที่จะพาคุณเดินทางรอบโลกและดำดิ่งสู่โลกแห่งความฝันอันไร้ขีดจำกัด
ดอม คอบบ์ (ลีโอนาร์โด ดิคาปริโอ) คือหัวขโมยมือหนึ่งในการฉกชิงความคิดอันล้ำค่าจากจิตใต้สำนึกของเป้าหมายด้วยการเข้าไปในความฝันของคนผู้นั้นในช่วงที่จิตใจเปราะบางที่สุด ความสามารถอันล้ำเลิศของดอมทำให้เขาเป็นที่ต้องการตัวของลูกค้า แต่มันก็ทำให้ดอมกลายเป็นนักโทษ

หลบหนีที่ไม่สามารถกลับไปพบหน้าลูกๆ ของเขาได้ จนเมื่อดอมได้รับข้อเสนอที่จะทำให้เขาแก้ไขอดีตที่ผิดพลาด แต่มันเป็นงานที่ยากกว่าการขโมยความคิดอย่างที่เคยทำเพราะนี่คือการเข้าไปปลูกฝังความคิดใหม่ ซึ่งถ้าสำเร็จ มันจะกลายเป็นอาชญากรรมที่สมบูรณ์แบบที่สุด อินเซ็ปชั่น จิต

พิฆาตโลก แต่ถึงจะวางแผนมาอย่างรอบคอบเพียงใดก็ไม่อาจทำให้พวกเขาหลุดพ้นอันตรายจากศัตรูที่เหมือนจะรู้ล่วงหน้าทุกความเคลื่อนไหวศัตรูซึ่งมีดอมเพียงคนเดียวที่มองเห็น

SuperHQ. Inception.2010.1080p.DTS.x264.MASTER-[Load2up.com] .mkv
Format : Matroska
Format version : Version 4 / Version 2
File size : 4.69 GiB
Duration : 2 h 28 min
Overall bit rate : 4 528 kb/s
Movie name : SuperHQ. Inception.2010.1080p.DTS.x264.MASTER-[Load2up.com] Encoded date : UTC 2015-06-04 06:23:13
Writing application : mkvmerge v7.8.0 (‘River Man’) 32bit built on Mar 27 2015 16:18:02
Writing library : libebml v1.3.1 + libmatroska v1.4.2
Cover : Yes
Attachments : cover_land.png / cover.png

Video
ID : 1
Format : AVC
Format/Info : Advanced Video Codec
Format profile : High@L4
Format settings, CABAC : Yes
Format settings, ReFrames : 4 frames
Codec ID : V_MPEG4/ISO/AVC
Duration : 2 h 28 min
Bit rate : 3 300 kb/s
Width : 1 920 pixels
Height : 800 pixels
Display aspect ratio : 2.40:1
Frame rate mode : Constant
Frame rate : 23.976 (24000/1001) FPS
Color space : YUV
Chroma subsampling : 4:2:0
Bit depth : 8 bits
Scan type : Progressive
Bits/(Pixel*Frame) : 0.090
Stream size : 3.41 GiB (73%)
Title : Inception.2010.1080p.SuperHQ.DTS.x264.MASTER
Writing library : x264 core 138 r2358 9e941d1
Language : English
Default : Yes
Forced : No

Audio #1
ID : 2
Format : AC-3
Format/Info : Audio Coding 3
Format settings, Endianness : Big
Codec ID : A_AC3
Duration : 2 h 28 min
Bit rate mode : Constant
Bit rate : 384 kb/s
Channel(s) : 6 channels
Channel positions : Front: L C R, Side: L R, LFE
Sampling rate : 48.0 kHz
Frame rate : 31.250 FPS (1536 spf)
Bit depth : 16 bits
Compression mode : Lossy
Stream size : 407 MiB (8%)
Title : AC3 DVD MASTER
Language : Thai
Service kind : Complete Main
Default : Yes
Forced : Yes

Audio #2
ID : 3
Format : DTS
Format/Info : Digital Theater Systems
Mode : 16
Format settings, Endianness : Big
Codec ID : A_DTS
Duration : 2 h 28 min
Bit rate mode : Constant
Bit rate : 755 kb/s
Channel(s) : 6 channels
Channel positions : Front: L C R, Side: L R, LFE
Sampling rate : 48.0 kHz
Frame rate : 93.750 FPS (512 spf)
Bit depth : 24 bits
Compression mode : Lossy
Stream size : 799 MiB (17%)
Title : DTS
Language : English
Default : No
Forced : No

Text #1
ID : 4
Format : VobSub
Codec ID : S_VOBSUB
Codec ID/Info : Picture based subtitle format used on DVDs
Title : 1080P TSA YELLOW
Language : Thai
Default : Yes
Forced : Yes

Text #2
ID : 5
Format : VobSub
Codec ID : S_VOBSUB
Codec ID/Info : Picture based subtitle format used on DVDs
Title : 1080P TSA
Language : Thai
Default : No
Forced : No

Text #3
ID : 6
Format : VobSub
Codec ID : S_VOBSUB
Codec ID/Info : Picture based subtitle format used on DVDs
Title : 1080P AS
Language : Thai
Default : No
Forced : No

Text #4
ID : 7
Format : VobSub
Codec ID : S_VOBSUB
Codec ID/Info : Picture based subtitle format used on DVDs
Title : DVD MASTER
Language : Thai
Default : No
Forced : No

Text #5
ID : 8
Format : UTF-8
Codec ID : S_TEXT/UTF8
Codec ID/Info : UTF-8 Plain Text
Title : SRT
Language : English
Default : No
Forced : No

Text #6
ID : 9
Format : UTF-8
Codec ID : S_TEXT/UTF8
Codec ID/Info : UTF-8 Plain Text
Title : SRT
Language : English
Default : No
Forced : No

Text #7
ID : 10
Format : UTF-8
Codec ID : S_TEXT/UTF8
Codec ID/Info : UTF-8 Plain Text
Title : SRT SDH
Language : English
Default : No
Forced : No

Text #8
ID : 11
Format : PGS
Codec ID : S_HDMV/PGS
Codec ID/Info : Picture based subtitle format used on BDs/HD-DVDs
Title : TSA
Language : Thai
Default : No
Forced : No

Text #9
ID : 12
Format : PGS
Codec ID : S_HDMV/PGS
Codec ID/Info : Picture based subtitle format used on BDs/HD-DVDs
Title : AS
Language : Thai
Default : No
Forced : No



หมายเหตุ ทุกเว็บโหลดแทนกันได้ แต่ต้องเปลี่ยนชื่อให้เรียงกันด้วย

สำหรับสมาชิก VIP เท่านั้น!

[restrict …]

|——————————————————————|

|——————————————————————|

[/restrict]

%d bloggers like this: