[MINI-HD 1080P] Happy Death Day 2U (2019) สุขสันต์วันตาย 2U [พากย์ไทย DTS + เสียงอังกฤษ DTS] [บรรยายไทย + อังกฤษ] [เสียงไทย + ซับไทย From Blu-Ray MASTER +ซับ PGS คมชัด] [MASTER] [MKV]

[MINI-HD 1080P] Happy Death Day 2U (2019) สุขสันต์วันตาย 2U

{MINI Super-HQ}_Happy.Death.Day.2u.2019.1080p.BrRip.DTS.x264[Load2up.com].mkv
Format : Matroska
Format version : Version 4
File size : 4.20 GiB
Duration : 1 h 39 min
Overall bit rate : 6 010 kb/s
Movie name : {MINI Super-HQ}_Happy.Death.Day.2u.2019.1080p.BrRip.DTS.x264
Encoded date : UTC 2019-06-15 06:49:55
Writing application : mkvmerge v9.8.0 (‘Kuglblids’) 64bit
Writing library : libebml v1.3.4 + libmatroska v1.4.5

Video
ID : 1
Format : AVC
Format/Info : Advanced Video Codec
Format profile : [email protected]
Format settings : CABAC / 4 Ref Frames
Format settings, CABAC : Yes
Format settings, ReFrames : 4 frames
Codec ID : V_MPEG4/ISO/AVC
Duration : 1 h 39 min
Bit rate : 4 303 kb/s
Width : 1 920 pixels
Height : 804 pixels
Display aspect ratio : 2.40:1
Frame rate mode : Constant
Frame rate : 23.976 (24000/1001) FPS
Color space : YUV
Chroma subsampling : 4:2:0
Bit depth : 8 bits
Scan type : Progressive
Bits/(Pixel*Frame) : 0.116
Stream size : 3.00 GiB (72%)
Title : {MINI Super-HQ}_Happy.Death.Day.2u.2019.1080p.BrRip.DTS.x264
Writing library : x264 core 130 r2273 b3065e6
Language : English
Default : Yes
Forced : No
Color range : Limited
Color primaries : BT.709
Transfer characteristics : BT.709
Matrix coefficients : BT.709

Audio #1
ID : 2
Format : DTS
Format/Info : Digital Theater Systems
Codec ID : A_DTS
Duration : 1 h 39 min
Bit rate mode : Constant
Bit rate : 768 kb/s
Channel(s) : 6 channels
Channel layout : C L R Ls Rs LFE
Sampling rate : 48.0 kHz
Frame rate : 93.750 FPS (512 SPF)
Bit depth : 24 bits
Compression mode : Lossy
Stream size : 549 MiB (13%)
Title : Thai BluRay Master
Language : Thai
Default : Yes
Forced : Yes

Audio #2
ID : 3
Format : DTS
Format/Info : Digital Theater Systems
Codec ID : A_DTS
Duration : 1 h 39 min
Bit rate mode : Constant
Bit rate : 755 kb/s
Channel(s) : 6 channels
Channel layout : C L R Ls Rs LFE
Sampling rate : 48.0 kHz
Frame rate : 93.750 FPS (512 SPF)
Bit depth : 24 bits
Compression mode : Lossy
Stream size : 539 MiB (13%)
Title : English DTS
Language : English
Default : No
Forced : No

Text #1
ID : 4
Format : VobSub
Codec ID : S_VOBSUB
Codec ID/Info : Picture based subtitle format used on DVDs
Duration : 1 h 38 min
Bit rate : 3 731 b/s
Count of elements : 1222
Stream size : 2.63 MiB (0%)
Title : Thai 480p
Language : Thai
Default : No
Forced : No

Text #2
ID : 5
Format : VobSub
Codec ID : S_VOBSUB
Codec ID/Info : Picture based subtitle format used on DVDs
Duration : 1 h 39 min
Bit rate : 4 318 b/s
Count of elements : 1222
Stream size : 3.08 MiB (0%)
Title : Thai 720p
Language : Thai
Default : No
Forced : No

Text #3
ID : 6
Format : VobSub
Codec ID : S_VOBSUB
Codec ID/Info : Picture based subtitle format used on DVDs
Duration : 1 h 39 min
Bit rate : 8 051 b/s
Count of elements : 1222
Stream size : 5.75 MiB (0%)
Title : Thai 1080p
Language : Thai
Default : Yes
Forced : Yes

Text #4
ID : 7
Format : VobSub
Codec ID : S_VOBSUB
Codec ID/Info : Picture based subtitle format used on DVDs
Duration : 1 h 39 min
Bit rate : 8 038 b/s
Count of elements : 1222
Stream size : 5.74 MiB (0%)
Title : Thai 1080p Yellow
Language : Thai
Default : No
Forced : No

Text #5
ID : 8
Format : VobSub
Codec ID : S_VOBSUB
Codec ID/Info : Picture based subtitle format used on DVDs
Duration : 1 h 39 min
Bit rate : 10.9 kb/s
Count of elements : 1222
Stream size : 7.80 MiB (0%)
Title : Thai 1080p BIG
Language : Thai
Default : No
Forced : No

Text #6
ID : 9
Format : VobSub
Codec ID : S_VOBSUB
Codec ID/Info : Picture based subtitle format used on DVDs
Duration : 1 h 39 min
Bit rate : 8 089 b/s
Count of elements : 1222
Stream size : 5.78 MiB (0%)
Title : Thai 1080p Out
Language : Thai
Default : No
Forced : No

Text #7
ID : 10
Format : VobSub
Codec ID : S_VOBSUB
Codec ID/Info : Picture based subtitle format used on DVDs
Duration : 1 h 39 min
Bit rate : 11.0 kb/s
Count of elements : 1222
Stream size : 7.86 MiB (0%)
Title : Thai 1080p Out [BIG] Language : Thai
Default : No
Forced : No

Text #8
ID : 11
Format : PGS
Codec ID : S_HDMV/PGS
Codec ID/Info : Picture based subtitle format used on BDs/HD-DVDs
Duration : 1 h 38 min
Bit rate : 24.4 kb/s
Count of elements : 2444
Stream size : 17.2 MiB (0%)
Title : Thai BluRay Master
Language : Thai
Default : No
Forced : No

Text #9
ID : 12
Format : PGS
Codec ID : S_HDMV/PGS
Codec ID/Info : Picture based subtitle format used on BDs/HD-DVDs
Duration : 1 h 39 min
Bit rate : 32.6 kb/s
Count of elements : 2452
Stream size : 23.3 MiB (1%)
Title : Thai PGS
Language : Thai
Default : No
Forced : No

Text #10
ID : 13
Format : PGS
Codec ID : S_HDMV/PGS
Codec ID/Info : Picture based subtitle format used on BDs/HD-DVDs
Duration : 1 h 39 min
Bit rate : 32.7 kb/s
Count of elements : 2452
Stream size : 23.4 MiB (1%)
Title : Thai PGS Yellow
Language : Thai
Default : No
Forced : No

Text #11
ID : 14
Format : PGS
Codec ID : S_HDMV/PGS
Codec ID/Info : Picture based subtitle format used on BDs/HD-DVDs
Duration : 1 h 39 min
Bit rate : 33.1 kb/s
Count of elements : 2452
Stream size : 23.6 MiB (1%)
Title : Thai PGS Out
Language : Thai
Default : No
Forced : No

Text #12
ID : 15
Format : VobSub
Codec ID : S_VOBSUB
Codec ID/Info : Picture based subtitle format used on DVDs
Duration : 1 h 34 min
Bit rate : 5 821 b/s
Count of elements : 1594
Stream size : 3.93 MiB (0%)
Title : English
Language : English
Default : No
Forced : No



หมายเหตุ ทุกเว็บโหลดแทนกันได้ แต่ต้องเปลี่ยนชื่อให้เรียงกันด้วย

สำหรับสมาชิก VIP เท่านั้น!

[restrict …]

|——————————————————————|

|——————————————————————|

[/restrict]

%d bloggers like this: