[MINI-HD 1080P] Guardians of the Tomb (2018) ขุมทรัพย์โคตรแมงมุม [พากย์ไทยโรง 5.1 + เสียงอังกฤษ5.1] [MKV] [ONE2UP]

[MINI-HD 1080P] Guardians of the Tomb (2018) ขุมทรัพย์โคตรแมงมุม

พบกับการค้นพบแห่งศตวรรษ การผจญภัยในเขาวงกตดึกดำบรรพ์ แมงมุมยักษ์กินคน” “สัตว์อสรพิษ” และ “ฝูงผีดิบ” ที่ซ่อนตัวอยู่ในวงกต!

Guardians.of.the.Tomb.2018.1080p.WEB-DL.H264.AC-3.THR5.1[Load2up.com].mkv
Format : Matroska
Format version : Version 4 / Version 2
File size : 3.40 GiB
Duration : 1 h 30 min
Overall bit rate : 5 375 kb/s
Movie name : Guardians.of.the.Tomb.2018.1080p.WEB-DL.H264.AC-3.THR5.1
Encoded date : UTC 2018-03-08 04:22:11
Writing application : mkvmerge v9.9.0 (‘Pick Up’) 64bit
Writing library : libebml v1.3.4 + libmatroska v1.4.5
Cover : Yes
Attachments : cover.jpg

Video
ID : 1
Format : AVC
Format/Info : Advanced Video Codec
Format profile : [email protected]
Format settings, CABAC : Yes
Format settings, ReFrames : 5 frames
Codec ID : V_MPEG4/ISO/AVC
Duration : 1 h 30 min
Bit rate : 4 533 kb/s
Width : 1 904 pixels
Height : 800 pixels
Display aspect ratio : 2.40:1
Frame rate mode : Constant
Frame rate : 23.976 (24000/1001) FPS
Color space : YUV
Chroma subsampling : 4:2:0
Bit depth : 8 bits
Scan type : Progressive
Bits/(Pixel*Frame) : 0.124
Stream size : 2.87 GiB (84%)
Title : Guardians.of.the.Tomb.2018.1080p.WEB-DL.H264.AC-3.THR5.1
Language : English
Default : Yes
Forced : No
Color range : Limited
Color primaries : BT.709
Transfer characteristics : BT.709
Matrix coefficients : BT.709

Audio #1
ID : 2
Format : AC-3
Format/Info : Audio Coding 3
Format settings, Endianness : Big
Codec ID : A_AC3
Duration : 1 h 30 min
Bit rate mode : Constant
Bit rate : 448 kb/s
Channel(s) : 6 channels
Channel positions : Front: L C R, Side: L R, LFE
Sampling rate : 48.0 kHz
Frame rate : 31.250 FPS (1536 spf)
Bit depth : 16 bits
Compression mode : Lossy
Delay relative to video : -42 ms
Stream size : 290 MiB (8%)
Title : THR 5.1
Language : Thai
Service kind : Complete Main
Default : Yes
Forced : No

Audio #2
ID : 3
Format : AC-3
Format/Info : Audio Coding 3
Format settings, Endianness : Big
Codec ID : A_AC3
Duration : 1 h 30 min
Bit rate mode : Constant
Bit rate : 384 kb/s
Channel(s) : 6 channels
Channel positions : Front: L C R, Side: L R, LFE
Sampling rate : 48.0 kHz
Frame rate : 31.250 FPS (1536 spf)
Bit depth : 16 bits
Compression mode : Lossy
Delay relative to video : -42 ms
Stream size : 249 MiB (7%)
Title : English DD5.1
Language : English
Service kind : Complete Main
Default : No
Forced : No



หมายเหตุ ทุกเว็บโหลดแทนกันได้ แต่ต้องเปลี่ยนชื่อให้เรียงกันด้วย

สำหรับสมาชิก VIP เท่านั้น!

[restrict …]

|——————————————————————|

|——————————————————————|

[/restrict]