[MINI-HD 1080P] Galveston (2018) แค้นระยะสุดท้าย [Soundtrack บรรยายไทย] [MKV] [ONE2UP]

Galveston (2018) แค้นระยะสุดท้าย

Galveston.2018.1080p.WEB-DL.DD5.1.H264[Load2up.com].mkv
Format : Matroska
Format version : Version 2
File size : 3.24 GiB
Duration : 1 h 33 min
Overall bit rate : 4 969 kb/s
Movie name : Galveston.2018.1080p.WEB-DL.DD5.1.H264
Encoded date : UTC 2018-10-21 11:36:32
Writing application : mkvmerge v5.0.0 (‘Die Wahre Liebe’) built on Sep 25 2011 20:33:49
Writing library : libebml v1.2.2 + libmatroska v1.3.0
Cover : Yes
Attachments : cover_land.jpg / small_cover.jpg / small_cover_land.jpg / cover.jpg

Video
ID : 1
Format : AVC
Format/Info : Advanced Video Codec
Format profile : [email protected]
Format settings, CABAC : Yes
Format settings, ReFrames : 5 frames
Muxing mode : Header stripping
Codec ID : V_MPEG4/ISO/AVC
Duration : 1 h 33 min
Bit rate : 4 486 kb/s
Width : 1 920 pixels
Height : 800 pixels
Display aspect ratio : 2.40:1
Frame rate mode : Constant
Frame rate : 23.976 (24000/1001) FPS
Color space : YUV
Chroma subsampling : 4:2:0
Bit depth : 8 bits
Scan type : Progressive
Bits/(Pixel*Frame) : 0.122
Stream size : 2.92 GiB (90%)
Title : Galveston.2018.1080p.WEB-DL.DD5.1.H264-FGT
Language : English
Default : Yes
Forced : No
Color range : Limited
Color primaries : BT.709
Transfer characteristics : BT.709
Matrix coefficients : BT.709
Statistics Tags Issue : mkvmerge v27.0.0 (‘Metropolis’)
FromStats_BitRate : 4580533
FromStats_Duration : 01:33:20.809000000
FromStats_FrameCount : 134285
FromStats_StreamSize : 3206836797

Audio
ID : 2
Format : AC-3
Format/Info : Audio Coding 3
Format settings, Endianness : Big
Muxing mode : Header stripping
Codec ID : A_AC3
Duration : 1 h 33 min
Bit rate mode : Constant
Bit rate : 384 kb/s
Channel(s) : 6 channels
Channel positions : Front: L C R, Side: L R, LFE
Sampling rate : 48.0 kHz
Frame rate : 31.250 FPS (1536 spf)
Bit depth : 16 bits
Compression mode : Lossy
Delay relative to video : -42 ms
Stream size : 256 MiB (8%)
Language : English
Service kind : Complete Main
Default : Yes
Forced : No
Statistics Tags Issue : mkvmerge v27.0.0
FromStats_BitRate : 384000
FromStats_Duration : 01:33:20.864000000
FromStats_FrameCount : 175027
FromStats_StreamSize : 268841472

Text #1
ID : 3
Format : VobSub
Muxing mode : zlib
Codec ID : S_VOBSUB
Codec ID/Info : Picture based subtitle format used on DVDs
Title : Thai
Language : Thai
Default : Yes
Forced : No

Text #2
ID : 4
Format : UTF-8
Codec ID : S_TEXT/UTF8
Codec ID/Info : UTF-8 Plain Text
Title : Thai.srt
Language : Thai
Default : No
Forced : No

Text #3
ID : 5
Format : UTF-8
Codec ID : S_TEXT/UTF8
Codec ID/Info : UTF-8 Plain Text
Title : English
Language : English
Default : No
Forced : No



หมายเหตุ ทุกเว็บโหลดแทนกันได้ แต่ต้องเปลี่ยนชื่อให้เรียงกันด้วย

สำหรับสมาชิก VIP เท่านั้น!

[restrict …]

|——————————————————————|

|——————————————————————|

[/restrict]