[MINI-HD 1080P] Fast & Furious: Hobbs & Shaw (2019) เร็ว…แรงทะลุนรก ฮ็อบส์ & ชอว์ [พากย์ไทย 5.1 + เสียงอังกฤษ7.1] [บรรยายไทย + อังกฤษ] [เสียงไทย + ซับไทย From Blu-Ray MASTER] [MASTER] [MKV]

Fast & Furious: Hobbs & Shaw (2019) เร็ว…แรงทะลุนรก ฮ็อบส์ & ชอว์

Fast & Furious: Hobbs & Shaw_(2019)
นับตั้งแต่ที่ ฮ็อบส์ เจ้าหน้าที่ผู้รักษากฎหมายเจ้าของร่างล่ำบึ้ก (จอห์นสัน) ผู้จงรักภักดีต่อองค์กรหน่วยรักษาความปลอดภัยทางการทูตแห่งอเมริกา
และชอว์ (สเตแธม) ชายนอกกฎหมาย อดีตเจ้าหน้าที่ทหารชั้นสูงของอังกฤษ ได้เผชิญหน้ากันเป็นครั้งแรกใน Fast & Furious 7 ในปี 2015
ทั้งคู่ก็ได้ปะทะกันทั้งด้วยคารมและหมัดด้วยความมุ่งหมายที่จะโค่นอีกฝ่ายให้ได้

แต่เมื่อบริกซ์ตัน (ไอดริส เอลบา) ผู้ชื่นชอบในลัทธิอนาธิปไตย และได้รับการปรับแต่งทางพันธุกรรมให้มีความสามารถสูงขึ้น
และมีอำนาจควบคุมภัยคุกคามร้ายกาจทางชีวะที่อาจเปลี่ยนแปลงชีวิตของมนุษยชาติไปตลอดกาล และมีชัยเหนือเจ้าหน้าที่เอ็มไอซิกส์ผู้ชาญฉลาด
และปราศจากความกลัว (วาเนสซา เคอร์บี้จาก The Crown) ผู้บังเอิญเป็นน้องสาวของชอว์ ศัตรูคู่อาฆาตทั้งสองคนนี้ จึงจำเป็นต้องจับมือกัน
เพื่อโค่นล้มคนเพียงคนเดียวที่อาจจะร้ายกาจยิ่งกว่าพวกเขา

Hobbs & Shaw เป็นการกระแทกเปิดประตูใหม่สู่จักรวาล Fast เมื่อแอ็กชั่นของมันพุ่งทะยานไปทั่วโลก จากลอสแองเจลิสสู่ลอนดอน
และจากเมืองร้างที่เต็มไปด้วยสารพิษอย่างเชอร์โนบิล สู่ความงามที่เขียวชอุ่มของซามัว!
{MINI Super-HQ}_Fast.&.Furious.Presents.Hobbs.&.Shaw.2019.1080p.BrRip.DTS.x264.THB[Load2up.com].mkv
Format : Matroska
Format version : Version 4
File size : 4.32 GiB
Duration : 2 h 15 min
Overall bit rate : 4 554 kb/s
Movie name : {MINI Super-HQ}_Fast.&.Furious.Presents.Hobbs.&.Shaw.2019.1080p.BrRip.DTS.x264.THB
Encoded date : UTC 2019-11-15 08:43:52
Writing application : mkvmerge v9.8.0 (‘Kuglblids’) 64bit
Writing library : libebml v1.3.4 + libmatroska v1.4.5

Video
ID : 1
Format : AVC
Format/Info : Advanced Video Codec
Format profile : [email protected]
Format settings : CABAC / 4 Ref Frames
Format settings, CABAC : Yes
Format settings, Reference : 4 frames
Codec ID : V_MPEG4/ISO/AVC
Duration : 2 h 15 min
Bit rate : 3 003 kb/s
Width : 1 920 pixels
Height : 804 pixels
Display aspect ratio : 2.40:1
Frame rate mode : Constant
Frame rate : 23.976 (24000/1001) FPS
Color space : YUV
Chroma subsampling : 4:2:0
Bit depth : 8 bits
Scan type : Progressive
Bits/(Pixel*Frame) : 0.081
Stream size : 2.85 GiB (66%)
Title : {MINI Super-HQ}_Fast.&.Furious.Presents.Hobbs.&.Shaw.2019.1080p.BrRip.DTS.x264.THB
Writing library : x264 core 157 r2935 545de2f
Language : English
Default : Yes
Forced : No
Color range : Limited
Color primaries : BT.709
Transfer characteristics : BT.709
Matrix coefficients : BT.709

Audio #1
ID : 2
Format : AC-3
Format/Info : Audio Coding 3
Commercial name : Dolby Digital
Codec ID : A_AC3
Duration : 2 h 15 min
Bit rate mode : Constant
Bit rate : 640 kb/s
Channel(s) : 6 channels
Channel layout : L R C LFE Ls Rs
Sampling rate : 48.0 kHz
Frame rate : 31.250 FPS (1536 SPF)
Compression mode : Lossy
Delay relative to video : -5 ms
Stream size : 622 MiB (14%)
Title : Thai BluRay Master
Language : Thai
Service kind : Complete Main
Default : Yes
Forced : Yes

Audio #2
ID : 3
Format : DTS
Format/Info : Digital Theater Systems
Codec ID : A_DTS
Duration : 2 h 15 min
Bit rate mode : Constant
Bit rate : 755 kb/s
Channel(s) : 6 channels
Channel layout : C L R Ls Rs LFE
Sampling rate : 48.0 kHz
Frame rate : 93.750 FPS (512 SPF)
Bit depth : 24 bits
Compression mode : Lossy
Delay relative to video : -5 ms
Stream size : 734 MiB (17%)
Title : English DTS
Language : English
Default : No
Forced : No

Text #1
ID : 4
Format : VobSub
Codec ID : S_VOBSUB
Codec ID/Info : Picture based subtitle format used on DVDs
Duration : 33 s 314 ms
Bit rate : 2 967 b/s
Count of elements : 1
Stream size : 12.1 KiB (0%)
Language : Thai
Default : Yes
Forced : Yes

Text #2
ID : 5
Format : VobSub
Codec ID : S_VOBSUB
Codec ID/Info : Picture based subtitle format used on DVDs
Duration : 2 h 15 min
Bit rate : 3 101 b/s
Count of elements : 1641
Stream size : 3.00 MiB (0%)
Title : Thai 720p
Language : Thai
Default : No
Forced : No

Text #3
ID : 6
Format : VobSub
Codec ID : S_VOBSUB
Codec ID/Info : Picture based subtitle format used on DVDs
Duration : 2 h 15 min
Bit rate : 5 851 b/s
Count of elements : 1641
Stream size : 5.66 MiB (0%)
Title : Thai 1080p
Language : Thai
Default : No
Forced : No

Text #4
ID : 7
Format : VobSub
Codec ID : S_VOBSUB
Codec ID/Info : Picture based subtitle format used on DVDs
Duration : 2 h 15 min
Bit rate : 5 843 b/s
Count of elements : 1641
Stream size : 5.65 MiB (0%)
Title : Thai 1080p Yellow
Language : Thai
Default : No
Forced : No

Text #5
ID : 8
Format : VobSub
Codec ID : S_VOBSUB
Codec ID/Info : Picture based subtitle format used on DVDs
Duration : 2 h 15 min
Bit rate : 5 851 b/s
Count of elements : 1641
Stream size : 5.66 MiB (0%)
Title : Thai 1080p Out
Language : Thai
Default : No
Forced : No

Text #6
ID : 9
Format : VobSub
Codec ID : S_VOBSUB
Codec ID/Info : Picture based subtitle format used on DVDs
Duration : 2 h 15 min
Bit rate : 7 834 b/s
Count of elements : 1641
Stream size : 7.58 MiB (0%)
Title : Thai 1080p BIG
Language : Thai
Default : No
Forced : No

Text #7
ID : 10
Format : PGS
Codec ID : S_HDMV/PGS
Codec ID/Info : Picture based subtitle format used on BDs/HD-DVDs
Duration : 2 h 15 min
Bit rate : 26.7 kb/s
Count of elements : 3286
Stream size : 25.8 MiB (1%)
Title : Thai PGS BluRay Master
Language : Thai
Default : No
Forced : No

Text #8
ID : 11
Format : PGS
Codec ID : S_HDMV/PGS
Codec ID/Info : Picture based subtitle format used on BDs/HD-DVDs
Duration : 2 h 15 min
Bit rate : 26.6 kb/s
Count of elements : 3282
Stream size : 25.8 MiB (1%)
Title : Thai PGS Out
Language : Thai
Default : No
Forced : No

Text #9
ID : 12
Format : PGS
Codec ID : S_HDMV/PGS
Codec ID/Info : Picture based subtitle format used on BDs/HD-DVDs
Duration : 2 h 15 min
Bit rate : 72.3 kb/s
Count of elements : 4404
Stream size : 70.2 MiB (2%)
Title : English
Language : English
Default : No
Forced : No



หมายเหตุ ทุกเว็บโหลดแทนกันได้ แต่ต้องเปลี่ยนชื่อให้เรียงกันด้วย


สำหรับสมาชิก VIP เท่านั้น!

[restrict …]

|——————————————————————|

|——————————————————————|

[/restrict]