[MINI-HD 1080P] Death Note (2017) เดธ โน้ต [เสียงอังกฤษ 5.1] [บรรยายไทย + อังกฤษ] [MKV] [ONE2UP] [Filefenix]

[MINI-HD 1080P] Death Note (2017) เดธ โน้ต

ด้วยการหลงอำนาจของสมุดมหัศจรรย์ทำให้เด็กหนุ่มคนหนึ่งเริ่มฆ่าผู้คนที่เขาคิดว่าไม่สมควรจะมีชีวิตอยู่ต่อไป เรื่องราวที่สร้างจากการ์ตูนญี่ปุ่นชื่อดัง

Death.Note.2017.1080p.NF.WEBRip.DD5.1.x264[Load2up.com].mkv
Format : Matroska
Format version : Version 4 / Version 2
File size : 3.01 GiB
Duration : 1 h 40 min
Overall bit rate mode : Variable
Overall bit rate : 4 297 kb/s
Movie name : Death.Note.2017.1080p.NF.WEBRip.DD5.1.x264
Encoded date : UTC 2017-08-25 11:13:51
Writing application : mkvmerge v15.0.0 (‘Duel with the Devil’) 64-bit
Writing library : libebml v1.3.5 + libmatroska v1.4.5

Video
ID : 1
Format : AVC
Format/Info : Advanced Video Codec
Format profile : [email protected]
Format settings, CABAC : Yes
Format settings, ReFrames : 3 frames
Codec ID : V_MPEG4/ISO/AVC
Duration : 1 h 40 min
Bit rate mode : Variable
Bit rate : 3 830 kb/s
Maximum bit rate : 5 745 kb/s
Width : 1 920 pixels
Height : 1 080 pixels
Display aspect ratio : 16:9
Frame rate mode : Constant
Frame rate : 23.976 (24000/1001) FPS
Color space : YUV
Chroma subsampling : 4:2:0
Bit depth : 8 bits
Scan type : Progressive
Bits/(Pixel*Frame) : 0.077
Stream size : 2.67 GiB (89%)
Title : Death.Note.2017.1080p.NF.WEBRip.DD5.1.x264
Writing library : x264 core 118
Language : English
Default : Yes
Forced : No

Audio
ID : 2
Format : AC-3
Format/Info : Audio Coding 3
Format settings, Endianness : Big
Codec ID : A_AC3
Duration : 1 h 40 min
Bit rate mode : Constant
Bit rate : 384 kb/s
Channel(s) : 6 channels
Channel positions : Front: L C R, Side: L R, LFE
Sampling rate : 48.0 kHz
Frame rate : 31.250 FPS (1536 spf)
Bit depth : 16 bits
Compression mode : Lossy
Stream size : 275 MiB (9%)
Title : Death.Note.2017.1080p.NF.WEBRip.DD5.1.x264
Language : English
Service kind : Complete Main
Default : Yes
Forced : No

Text #1
ID : 3
Format : VobSub
Codec ID : S_VOBSUB
Codec ID/Info : Picture based subtitle format used on DVDs
Duration : 1 h 39 min
Bit rate : 2 719 b/s
Count of elements : 1076
Stream size : 1.93 MiB (0%)
Title : Thai 480p
Language : Thai
Default : No
Forced : No

Text #2
ID : 4
Format : VobSub
Codec ID : S_VOBSUB
Codec ID/Info : Picture based subtitle format used on DVDs
Duration : 1 h 39 min
Bit rate : 5 064 b/s
Count of elements : 1076
Stream size : 3.60 MiB (0%)
Title : Thai 720p
Language : Thai
Default : No
Forced : No

Text #3
ID : 5
Format : VobSub
Codec ID : S_VOBSUB
Codec ID/Info : Picture based subtitle format used on DVDs
Duration : 1 h 39 min
Bit rate : 9 137 b/s
Count of elements : 1076
Stream size : 6.50 MiB (0%)
Title : Thai 1080p
Language : Thai
Default : Yes
Forced : Yes

Text #4
ID : 6
Format : VobSub
Codec ID : S_VOBSUB
Codec ID/Info : Picture based subtitle format used on DVDs
Duration : 1 h 39 min
Bit rate : 8 176 b/s
Count of elements : 1076
Stream size : 5.82 MiB (0%)
Title : Thai 1080p Yellow
Language : Thai
Default : No
Forced : No

Text #5
ID : 7
Format : PGS
Codec ID : S_HDMV/PGS
Codec ID/Info : Picture based subtitle format used on BDs/HD-DVDs
Duration : 1 h 39 min
Bit rate : 36.5 kb/s
Count of elements : 2152
Stream size : 26.0 MiB (1%)
Title : Thai PGS
Language : Thai
Default : No
Forced : No

Text #6
ID : 8
Format : PGS
Codec ID : S_HDMV/PGS
Codec ID/Info : Picture based subtitle format used on BDs/HD-DVDs
Duration : 1 h 39 min
Bit rate : 36.5 kb/s
Count of elements : 2152
Stream size : 26.0 MiB (1%)
Title : Thai PGS OUT
Language : Thai
Default : No
Forced : No

Text #7
ID : 9
Format : UTF-8
Codec ID : S_TEXT/UTF8
Codec ID/Info : UTF-8 Plain Text
Duration : 2 min 11 s
Bit rate : 44 b/s
Count of elements : 17
Stream size : 737 Bytes (0%)
Title : CC
Language : English
Default : No
Forced : Yes

Text #8
ID : 10
Format : UTF-8
Codec ID : S_TEXT/UTF8
Codec ID/Info : UTF-8 Plain Text
Duration : 1 h 39 min
Bit rate : 64 b/s
Count of elements : 1267
Stream size : 47.0 KiB (0%)
Title : CC (SDH)
Language : English
Default : No
Forced : No



หมายเหตุ ทุกเว็บโหลดแทนกันได้ แต่ต้องเปลี่ยนชื่อให้เรียงกันด้วย

สำหรับสมาชิก VIP เท่านั้น!

[restrict …]

|——————————————————————|

|——————————————————————|

[/restrict]

%d bloggers like this: