[MINI-HD 1080P] Cat A Wabb (2015) แคทอ่ะแว้บ [พากย์ไทย] [SubEng] [MKV] [FILEFENIX] [ONE2UP]

[MINI-HD 1080P] Cat A Wabb (2015) แคทอ่ะแว้บ

Cat_A_Wabb.2015.1080p.BDRip.x264.AC3 [Load2up.com].mkv
Format : Matroska
Format version : Version 4 / Version 2
File size : 4.06 GiB
Duration : 1 h 48 min
Overall bit rate : 5 341 kb/s
Encoded date : UTC 2016-08-10 15:05:30
Writing application : mkvmerge v9.3.1 (‘Mask Machine’) 64bit
Writing library : libebml v1.3.4 + libmatroska v1.4.5

Video
ID : 1
Format : AVC
Format/Info : Advanced Video Codec
Format profile : [email protected]
Format settings, CABAC : Yes
Format settings, ReFrames : 4 frames
Codec ID : V_MPEG4/ISO/AVC
Duration : 1 h 48 min
Bit rate : 4 595 kb/s
Width : 1 920 pixels
Height : 1 080 pixels
Display aspect ratio : 16:9
Frame rate mode : Constant
Frame rate : 25.000 FPS
Color space : YUV
Chroma subsampling : 4:2:0
Bit depth : 8 bits
Scan type : Progressive
Bits/(Pixel*Frame) : 0.089
Stream size : 3.49 GiB (86%)
Title : แคทอ่ะแว้บ Cat A Wabb (2015) BlurayRip 1080p
Writing library : x264 core 148 r2692kMod 64f4e24
Default : Yes
Forced : No

Audio
ID : 2
Format : AC-3
Format/Info : Audio Coding 3
Mode extension : CM (complete main)
Format settings, Endianness : Big
Codec ID : A_AC3
Duration : 1 h 48 min
Bit rate mode : Constant
Bit rate : 640 kb/s
Channel(s) : 6 channels
Channel positions : Front: L C R, Side: L R, LFE
Sampling rate : 48.0 kHz
Frame rate : 31.250 FPS (1536 spf)
Compression mode : Lossy
Stream size : 498 MiB (12%)
Title : 5.1 AC3 640
Language : Thai
Default : Yes
Forced : No

Text
ID : 3
Format : UTF-8
Codec ID : S_TEXT/UTF8
Codec ID/Info : UTF-8 Plain Text
Language : English
Default : No
Forced : No



หมายเหตุ ทุกเว็บโหลดแทนกันได้ แต่ต้องเปลี่ยนชื่อให้เรียงกันด้วย

สำหรับสมาชิก VIP เท่านั้น!

[restrict …]

cornfile.com

|——————————————————————|

|——————————————————————|

[/restrict]