[MINI-HD 1080P] The Butterfly Effect 2 (2006) เปลี่ยนตาย ไม่ให้ตาย 2 [พากย์ไทย 5.1 + อังกฤษ DTS] [ซับไทย + อังกฤษ] [MASTER] [MKV] [ONE2UP] [Filefenix]

[MINI-HD 1080P] The Butterfly Effect 2 (2006) เปลี่ยนตาย ไม่ให้ตาย 2

ชีวิตของ นิค ลาร์สัน (เอริค ไลฟ์ลี่) ไปได้ดีทั้งด้านการงานและความรัก งานในบริษัทอิเล็กทรอนิกส์ของเขากำลังอยู่ในช่วงขาขึ้น ส่วนความรักกับศิลปินภาพถ่ายสาว จูลี่ มิลเลอร์ (เอริกา ดูแรนซ์) ก็กำลังหวานชื่น เขาขอให้เธอเลิกล้มความตั้งใจที่จะไปเรียนต่อที่นิวยอร์ก เพราะเชื่อว่าสักวันเขา

จะมีเงินพอสำหรับเปิดแกลเลอรี่ให้เธอ แต่ชีวิตสมบูรณ์แบบของนิคกลับต้องพลิกผัน เพราะโทรศัพท์เพียงกริ๊งเดียวเมื่อ เดฟ บริสทอล (เดวิด ลูอิส) หัวหน้าของนิคโทรมาสั่งให้เขาเข้าบริษัทด่วน เพื่อเตรียมประชุมกับผู้ลงทุนในวันรุ่งขึ้น เหตุการณ์มากมาย ที่จะเปลี่ยนชีวิตของเขาไปตลอดกาลก็

เกิดตามมา แม้ว่าโทรศัพท์เรียกตัวจะดังขึ้นในวันเกิดของหญิงคนรัก นิคก็เลือกที่จะไป เพราะเห็นความสำคัญของอนาคตมากกว่าปัจจุบัน จูลี่รู้สึกเสียใจอยู่ลึกๆ แต่ด้วยความรักที่มีต่อนิค เธอจึงยอมละทิ้งความสุขของตนเองและตามใจคนรักโชคร้ายจริงๆ ที่นิคมองเห็นคุณค่าของเธอน้อยกว่าที่

ควรจะเป็น…ไม่อยู่ฉลองวันเกิดสาวคนรักไม่พอ นิคยังแสดงด้านลบออกมาอีกระหว่างทางกลับเข้าเมือง เมื่อ เทรเวอร์ (ดัสติน มิลลิแกน) เพื่อนรักแนะว่าให้ลืมเรื่องงานซะ แล้วกลับไปฉลองวันเกิดจูลี่ต่อ นิคกลับแสดงท่าทีเยาะเย้ยเพื่อน ว่าคนไม่รักความก้าวหน้าอย่างเทรเวอร์คงไปไหนไม่ได้ไกล ถ้า

ไม่ได้แรงสนับสนุนจากเขารถจี๊ปของนิคติดอยู่หลังรถบรรทุกที่ขับช้า เขาหักออกด้วยความใจร้อนเพื่อแซงหน้า แต่กลับเสียหลักจนเกิดอุบัติเหตุ ผลคือจูลี่และเพื่อนทั้งสองของเขาเสียชีวิต 1 ปีผ่านไป นิคพยายามดิ้นรนเพื่อให้ได้ชีวิตเดิมกลับคืนมา แต่ก็ไม่มีอะไรดีขึ้น หน้าที่การงานเริ่มไม่ราบรื่น

ขณะที่ บริสทอล ผู้เป็นหัวหน้ากลับรุ่งเรืองขึ้นเรื่อยๆ และได้รับการแต่งตั้งให้เป็นรองประธานบริษัท อย่างไรก็ตาม บริสทอลไม่ได้ใช้อำนาจในทางที่ถูกสักเท่าไหร่ไม่นาน เหตุผลที่นิคไม่ได้เลื่อนขั้นก็เปิดเผย ระหว่างการประชุมกับนักลงทุน นิคเกิดอาการปวดหัวอย่างรุนแรง และมีอาการชักกระตุกแต่

ไม่ถึงกับหมดสติ สาเหตุคือเขาถูกเร้าจากภาพความทรงจำ ซึ่งในกรณีนี้คือภาพถ่ายบริษัทที่มีเทรเวอร์อยู่ อาการนี้เกิดขึ้นก่อนหน้านี้แล้วครั้งหนึ่ง ตอนที่นิคนอนพักฟื้นอยู่ในโรงพยาบาลหลังอุบัติเหตุ และเกิดขึ้นอีกครั้งตอนที่เขามองรูปจูลี่ และตอนนี้เมื่อเขาจ้องรูปเทรเวอร์ ภาพนั้นก็เหมือนฉีก

ขาดเป็นเสี่ยงๆ นิคเหมือนควบคุมตัวเองไม่ได้ไปชั่วขณะ ภายในใจถูกความเจ็บปวดและภาพอดีตถาโถมเข้าใส่ และเมื่อความมืดเข้าครอบงำ เลือดกำเดาของเขาก็ไหลออกมาเป็นทางสิ่งที่นิคต้องเผชิญหลังจากนั้น คือเหตุการณ์ซับซ้อนน่าสะพรึงเกินคาดเดาที่เกิดขึ้น เมื่อเขาย้อนเวลากลับไป

เปลี่ยนอดีต ซึ่งทุกครั้งต้องแลกมาด้วยความเจ็บปวดแสนสาหัส อำนาจการแก้ไขอดีตกลายเป็นความท้าทายสำหรับนิค เขารู้ว่าสามารถแก้ไขอดีตได้ แต่ไม่เคยคิดเลยว่า มันจะส่งผลกระทบต่อเหตุการณ์อื่นๆอย่างไรบ้าง

The.Butterfly.Effect.2.2006.BDRip.1080p.x264[Load2up.com].mkv
Format : Matroska
Format version : Version 4 / Version 2
File size : 3.27 GiB
Duration : 1 h 32 min
Overall bit rate : 5 065 kb/s
Movie name : The.Butterfly.Effect.2.2006.BDRip.1080p.x264
Encoded date : UTC 2013-11-20 09:38:48
Writing application : mkvmerge v6.5.0 (‘Isn’t she lovely’) built on Oct 22 2013 05:46:36
Writing library : libebml v1.3.0 + libmatroska v1.4.1

Video
ID : 1
Format : AVC
Format/Info : Advanced Video Codec
Format profile : [email protected]
Format settings, CABAC : Yes
Format settings, ReFrames : 4 frames
Codec ID : V_MPEG4/ISO/AVC
Duration : 1 h 32 min
Bit rate : 4 068 kb/s
Nominal bit rate : 4 500 kb/s
Width : 1 920 pixels
Height : 1 080 pixels
Display aspect ratio : 16:9
Frame rate mode : Constant
Frame rate : 23.976 (24000/1001) FPS
Color space : YUV
Chroma subsampling : 4:2:0
Bit depth : 8 bits
Scan type : Progressive
Bits/(Pixel*Frame) : 0.082
Stream size : 2.62 GiB (80%)
Writing library : x264 core 130 r2273 b3065e6
Language : English
Default : Yes
Forced : No
Color range : Limited
Color primaries : BT.709
Transfer characteristics : BT.709
Matrix coefficients : BT.709

Audio #1
ID : 2
Format : AC-3
Format/Info : Audio Coding 3
Format settings, Endianness : Big
Codec ID : A_AC3
Duration : 1 h 32 min
Bit rate mode : Constant
Bit rate : 448 kb/s
Channel(s) : 6 channels
Channel positions : Front: L C R, Side: L R, LFE
Sampling rate : 48.0 kHz
Frame rate : 31.250 FPS (1536 spf)
Bit depth : 16 bits
Compression mode : Lossy
Delay relative to video : 420 ms
Stream size : 296 MiB (9%)
Title : Thai AC3 DVD Master
Language : Thai
Service kind : Complete Main
Default : Yes
Forced : Yes

Audio #2
ID : 3
Format : AC-3
Format/Info : Audio Coding 3
Format settings, Endianness : Big
Codec ID : A_AC3
Duration : 1 h 32 min
Bit rate mode : Constant
Bit rate : 448 kb/s
Channel(s) : 6 channels
Channel positions : Front: L C R, Side: L R, LFE
Sampling rate : 48.0 kHz
Frame rate : 31.250 FPS (1536 spf)
Bit depth : 16 bits
Compression mode : Lossy
Stream size : 296 MiB (9%)
Title : English AC3
Language : English
Service kind : Complete Main
Default : No
Forced : No

Text #1
ID : 4
Format : VobSub
Muxing mode : zlib
Codec ID : S_VOBSUB
Codec ID/Info : Picture based subtitle format used on DVDs
Title : Thai 480p From DVD Master
Language : Thai
Default : Yes
Forced : No

Text #2
ID : 5
Format : UTF-8
Codec ID : S_TEXT/UTF8
Codec ID/Info : UTF-8 Plain Text
Title : English SRT
Language : English
Default : No
Forced : No



หมายเหตุ ทุกเว็บโหลดแทนกันได้ แต่ต้องเปลี่ยนชื่อให้เรียงกันด้วย

สำหรับสมาชิก VIP เท่านั้น!

[restrict …]

|——————————————————————|

|——————————————————————|

[/restrict]

%d bloggers like this: