[MINI-HD 1080P] Bernie The Dolphin (2018) เบอร์นี่ โลมาน้อย หัวใจมหาสมุทร [พากย์ไทยโรง 5.1 + เสียงอังกฤษ 5.1] [บรรยายอังกฤษ] [MKV]

[MINI-HD 1080P] Bernie The Dolphin (2018) เบอร์นี่ โลมาน้อย หัวใจมหาสมุทร

Bernie The Dolphin (2018)_1080p.WEB-DL.H264.AC3.THR5.1[Load2up.com].mkv
Format : Matroska
Format version : Version 4
File size : 3.33 GiB
Duration : 1 h 28 min
Overall bit rate : 5 408 kb/s
Movie name : Bernie The Dolphin (2018)_1080p.WEB-DL.H264.AC3.THR5.1
Encoded date : UTC 2019-03-15 06:21:02
Writing application : mkvmerge v25.0.0 (‘Prog Noir’) 64-bit
Writing library : libebml v1.3.6 + libmatroska v1.4.9
Cover : Yes
Attachments : cover.jpg

Video
ID : 1
Format : AVC
Format/Info : Advanced Video Codec
Format profile : [email protected]
Format settings : CABAC / 5 Ref Frames
Format settings, CABAC : Yes
Format settings, ReFrames : 5 frames
Codec ID : V_MPEG4/ISO/AVC
Duration : 1 h 28 min
Bit rate : 4 572 kb/s
Width : 1 908 pixels
Height : 804 pixels
Display aspect ratio : 2.40:1
Frame rate mode : Constant
Frame rate : 23.976 (24000/1001) FPS
Color space : YUV
Chroma subsampling : 4:2:0
Bit depth : 8 bits
Scan type : Progressive
Bits/(Pixel*Frame) : 0.124
Stream size : 2.82 GiB (85%)
Title : Bernie The Dolphin (2018)_1080p.WEB-DL.H264.AC3.THR5.1
Language : English
Default : Yes
Forced : No
Color range : Limited
Color primaries : BT.709
Transfer characteristics : BT.709
Matrix coefficients : BT.709

Audio #1
ID : 2
Format : AC-3
Format/Info : Audio Coding 3
Commercial name : Dolby Digital
Codec ID : A_AC3
Duration : 1 h 28 min
Bit rate mode : Constant
Bit rate : 448 kb/s
Channel(s) : 6 channels
Channel layout : L R C LFE Ls Rs
Sampling rate : 48.0 kHz
Frame rate : 31.250 FPS (1536 SPF)
Bit depth : 16 bits
Compression mode : Lossy
Delay relative to video : -42 ms
Stream size : 283 MiB (8%)
Title : ThaiRong 5.1 @ 448 kb/s
Language : Thai
Service kind : Complete Main
Default : Yes
Forced : Yes

Audio #2
ID : 3
Format : AC-3
Format/Info : Audio Coding 3
Commercial name : Dolby Digital
Codec ID : A_AC3
Duration : 1 h 28 min
Bit rate mode : Constant
Bit rate : 384 kb/s
Channel(s) : 6 channels
Channel layout : L R C LFE Ls Rs
Sampling rate : 48.0 kHz
Frame rate : 31.250 FPS (1536 SPF)
Bit depth : 16 bits
Compression mode : Lossy
Delay relative to video : -42 ms
Stream size : 242 MiB (7%)
Title : English 5.1 @ 384 kb/s
Language : English
Service kind : Complete Main
Default : No
Forced : No

Text
ID : 4
Format : UTF-8
Codec ID : S_TEXT/UTF8
Codec ID/Info : UTF-8 Plain Text
Duration : 1 h 23 min
Bit rate : 70 b/s
Count of elements : 1326
Stream size : 43.1 KiB (0%)
Title : English
Language : English
Default : Yes
Forced : No



หมายเหตุ ทุกเว็บโหลดแทนกันได้ แต่ต้องเปลี่ยนชื่อให้เรียงกันด้วย

สำหรับสมาชิก VIP เท่านั้น!

[restrict …]

|——————————————————————|

|——————————————————————|

[/restrict]

%d bloggers like this: