[MINI-HD 1080P] Bad Guys The Movie (2019) ทีมคนซ่า ล่าคนเลว [พากย์ไทย มาสเตอร์ + เสียงเกาหลี DTS] [เสียงไทย MASTER] [MKV]

Bad Guys The Movie (2019) ทีมคนซ่า ล่าคนเลว

{MINI Super-HQ}_Bad.Guys.The.Movie.2019.1080p.BrRip.DTS.x264[Load2up.com].mkv
Format : Matroska
Format version : Version 4
File size : 3.77 GiB
Duration : 1 h 50 min
Overall bit rate : 4 879 kb/s
Movie name : {MINI Super-HQ}_Bad.Guys.The.Movie.2019.1080p.BrRip.DTS.x264
Encoded date : UTC 2020-04-09 12:10:35
Writing application : mkvmerge v9.8.0 (‘Kuglblids’) 64bit
Writing library : libebml v1.3.4 + libmatroska v1.4.5

Video
ID : 1
Format : AVC
Format/Info : Advanced Video Codec
Format profile : [email protected]
Format settings : CABAC / 4 Ref Frames
Format settings, CABAC : Yes
Format settings, ReFrames : 4 frames
Codec ID : V_MPEG4/ISO/AVC
Duration : 1 h 50 min
Bit rate : 3 738 kb/s
Width : 1 920 pixels
Height : 800 pixels
Display aspect ratio : 2.40:1
Frame rate mode : Constant
Frame rate : 25.000 FPS
Color space : YUV
Chroma subsampling : 4:2:0
Bit depth : 8 bits
Scan type : Progressive
Bits/(Pixel*Frame) : 0.097
Stream size : 2.89 GiB (77%)
Title : {MINI Super-HQ}_Bad.Guys.The.Movie.2019.1080p.BrRip.DTS.x264
Writing library : x264 core 157 r2935 545de2f
Language : Korean
Default : Yes
Forced : No
Color range : Limited
Color primaries : BT.709
Transfer characteristics : BT.709
Matrix coefficients : BT.709

Audio #1
ID : 2
Format : AC-3
Format/Info : Audio Coding 3
Commercial name : Dolby Digital
Codec ID : A_AC3
Duration : 1 h 50 min
Bit rate mode : Constant
Bit rate : 384 kb/s
Channel(s) : 2 channels
Channel layout : L R
Sampling rate : 48.0 kHz
Frame rate : 31.250 FPS (1536 SPF)
Bit depth : 16 bits
Compression mode : Lossy
Stream size : 304 MiB (8%)
Title : Thai Master
Language : Thai
Service kind : Complete Main
Default : Yes
Forced : No

Audio #2
ID : 3
Format : DTS
Format/Info : Digital Theater Systems
Codec ID : A_DTS
Duration : 1 h 50 min
Bit rate mode : Constant
Bit rate : 755 kb/s
Channel(s) : 6 channels
Channel layout : C L R Ls Rs LFE
Sampling rate : 48.0 kHz
Frame rate : 93.750 FPS (512 SPF)
Bit depth : 24 bits
Compression mode : Lossy
Stream size : 597 MiB (15%)
Title : Korean DTS
Language : Korean
Default : No
Forced : No



หมายเหตุ ทุกเว็บโหลดแทนกันได้ แต่ต้องเปลี่ยนชื่อให้เรียงกันด้วย


สำหรับสมาชิก VIP เท่านั้น!

[restrict …]

|——————————————————————|

|——————————————————————|

[/restrict]

%d bloggers like this: