[MINI-HD 1080P] Assassin Creed (2016) อัสแซสซินส์ ครีด [พากย์ไทยโรง + อังกฤษ 5.1] [ซับอังกฤษ] [MKV] [ONE2UP]

[MINI-HD 1080P] Assassin Creed (2016) อัสแซสซินส์ ครีด

คัลลัม ลินช์ (Callum Lynch)” ชายหนุ่ม ผู้สืบเชื้อสายมาจาก “อกีลาร์ (Aguilar)” สมาชิกองค์กรนักฆ่าในศตวรรษที่ 15 ของสเปน ผู้ที่จะมาถูกปลุกความสามารถที่หลับไหลภายในยีนของเขาให้ตื่นขึ้นมา ด้วยเทคโนโลยีสุดล้ำจากองค์กรลับ พร้อมกับความทรงจำและความสามารถของนักฆ่าอกีลาร์ เพื่อนำมาใช้ในการต่อกรกับอำนาจชั่วร้ายขององค์กรอัศวินเทมปลาร์ (Knights Templar) ในยุคปัจจุบัน

Assassins.Creed.2016.1080p.WEB-DL.DD5.1.H264[Load2up.com].mkv
Format : Matroska
Format version : Version 4 / Version 2
File size : 4.18 GiB
Duration : 1 h 56 min
Overall bit rate : 5 148 kb/s
Movie name : Assassins.Creed.2016.1080p.WEB-DL.DD5.1.H264-FGT
Encoded date : UTC 2017-03-11 08:44:37
Writing application : mkvmerge v9.9.0 (‘Pick Up’) 64bit
Writing library : libebml v1.3.4 + libmatroska v1.4.5
Cover : Yes
Attachments : cover_land.jpg / small_cover.jpg / small_cover_land.jpg / cover.jpg

Video
ID : 1
Format : AVC
Format/Info : Advanced Video Codec
Format profile : High@L4
Format settings, CABAC : Yes
Format settings, ReFrames : 5 frames
Codec ID : V_MPEG4/ISO/AVC
Duration : 1 h 56 min
Bit rate : 4 575 kb/s
Width : 1 916 pixels
Height : 800 pixels
Display aspect ratio : 2.40:1
Frame rate mode : Constant
Frame rate : 23.976 (23976/1000) FPS
Color space : YUV
Chroma subsampling : 4:2:0
Bit depth : 8 bits
Scan type : Progressive
Bits/(Pixel*Frame) : 0.124
Stream size : 3.72 GiB (89%)
Title : Assassins.Creed.2016.1080p.WEB-DL.DD5.1.H264-FGT
Language : English
Default : Yes
Forced : No
Color range : Limited
Color primaries : BT.709
Transfer characteristics : BT.709
Matrix coefficients : BT.709

Audio #1
ID : 2
Format : AC-3
Format/Info : Audio Coding 3
Mode extension : CM (complete main)
Format settings, Endianness : Big
Codec ID : A_AC3
Duration : 1 h 55 min
Bit rate mode : Constant
Bit rate : 384 kb/s
Channel(s) : 6 channels
Channel positions : Front: L C R, Side: L R, LFE
Sampling rate : 48.0 kHz
Frame rate : 31.250 FPS (1536 spf)
Bit depth : 16 bits
Compression mode : Lossy
Stream size : 317 MiB (7%)
Title : AC-3
Language : English
Default : Yes
Forced : No

Audio #2
ID : 5
Format : AC-3
Format/Info : Audio Coding 3
Mode extension : CM (complete main)
Format settings, Endianness : Big
Codec ID : A_AC3
Duration : 1 h 54 min
Bit rate mode : Constant
Bit rate : 192 kb/s
Channel(s) : 2 channels
Channel positions : Front: L R
Sampling rate : 48.0 kHz
Frame rate : 31.250 FPS (1536 spf)
Bit depth : 16 bits
Compression mode : Lossy
Delay relative to video : 1 s 0 ms
Stream size : 158 MiB (4%)
Title : AC-3 ThaiRong 2.0
Default : No
Forced : No

Text #1
ID : 3
Format : UTF-8
Codec ID : S_TEXT/UTF8
Codec ID/Info : UTF-8 Plain Text
Duration : 1 h 19 min
Bit rate : 4 b/s
Count of elements : 107
Stream size : 2.89 KiB (0%)
Title : FORCED
Language : English
Default : Yes
Forced : Yes

Text #2
ID : 4
Format : UTF-8
Codec ID : S_TEXT/UTF8
Codec ID/Info : UTF-8 Plain Text
Duration : 1 h 38 min
Bit rate : 24 b/s
Count of elements : 622
Stream size : 17.9 KiB (0%)
Language : English
Default : No
Forced : No



หมายเหตุ ทุกเว็บโหลดแทนกันได้ แต่ต้องเปลี่ยนชื่อให้เรียงกันด้วย

สำหรับสมาชิก VIP เท่านั้น!

[restrict …]

|——————————————————————|

|——————————————————————|

[/restrict]

%d bloggers like this: