Home > Mini-HD > [MINI-HD 1080P] 7500 (2019) รหัสมฤตยู [เสียงอังกฤษ DTS] [บรรยาย: ไทย-อังกฤษ Master + ซับ PGS คมชัด] [MKV]

[MINI-HD 1080P] 7500 (2019) รหัสมฤตยู [เสียงอังกฤษ DTS] [บรรยาย: ไทย-อังกฤษ Master + ซับ PGS คมชัด] [MKV]

[MINI-HD 1080P] 7500 (2019) รหัสมฤตยู

{MINI Super-HQ}_7500.(2019).BluRay.1080p.x264.DTS.Load2up.com.mkv
Format : Matroska
Format version : Version 4
File size : 3.65 GiB
Duration : 1 h 33 min
Overall bit rate : 5 617 kb/s
Movie name : {MINI Super-HQ}_7500.(2019)[email protected]
Encoded date : UTC 2020-07-05 18:01:40
Writing application : mkvmerge v9.8.0 (‘Kuglblids’) 64bit
Writing library : libebml v1.3.4 + libmatroska v1.4.5

Video
ID : 1
Format : AVC
Format/Info : Advanced Video Codec
Format profile : [email protected]
Format settings : CABAC / 4 Ref Frames
Format settings, CABAC : Yes
Format settings, ReFrames : 4 frames
Codec ID : V_MPEG4/ISO/AVC
Duration : 1 h 33 min
Bit rate : 4 647 kb/s
Width : 1 920 pixels
Height : 804 pixels
Display aspect ratio : 2.40:1
Frame rate mode : Constant
Frame rate : 24.000 FPS
Color space : YUV
Chroma subsampling : 4:2:0
Bit depth : 8 bits
Scan type : Progressive
Bits/(Pixel*Frame) : 0.125
Stream size : 3.02 GiB (83%)
Title : {MINI Super-HQ}_7500.(2019).BluRay.1080p.x264.DTS
Writing library : x264 core 157 r2935 545de2f
Language : English
Default : Yes
Forced : Yes
Color range : Limited
Color primaries : BT.709
Transfer characteristics : BT.709
Matrix coefficients : BT.709

Audio
ID : 2
Format : DTS
Format/Info : Digital Theater Systems
Codec ID : A_DTS
Duration : 1 h 33 min
Bit rate mode : Constant
Bit rate : 755 kb/s
Channel(s) : 6 channels
Channel layout : C L R Ls Rs LFE
Sampling rate : 48.0 kHz
Frame rate : 93.750 FPS (512 SPF)
Bit depth : 24 bits
Compression mode : Lossy
Stream size : 503 MiB (13%)
Title : English DTS
Language : English
Default : Yes
Forced : Yes

Text #1
ID : 3
Format : VobSub
Codec ID : S_VOBSUB
Codec ID/Info : Picture based subtitle format used on DVDs
Duration : 1 h 32 min
Bit rate : 4 738 b/s
Count of elements : 1134
Stream size : 3.15 MiB (0%)
Title : Thai 720p
Language : Thai
Default : No
Forced : No

Text #2
ID : 4
Format : VobSub
Codec ID : S_VOBSUB
Codec ID/Info : Picture based subtitle format used on DVDs
Duration : 1 h 32 min
Bit rate : 8 601 b/s
Count of elements : 1134
Stream size : 5.71 MiB (0%)
Title : Thai 1080p
Language : Thai
Default : Yes
Forced : Yes

Text #3
ID : 5
Format : VobSub
Codec ID : S_VOBSUB
Codec ID/Info : Picture based subtitle format used on DVDs
Duration : 1 h 32 min
Bit rate : 8 595 b/s
Count of elements : 1134
Stream size : 5.71 MiB (0%)
Title : Thai 1080p Yellow
Language : Thai
Default : No
Forced : No

Text #4
ID : 6
Format : VobSub
Codec ID : S_VOBSUB
Codec ID/Info : Picture based subtitle format used on DVDs
Duration : 1 h 32 min
Bit rate : 11.8 kb/s
Count of elements : 1134
Stream size : 7.85 MiB (0%)
Title : Thai 1080p Big
Language : Thai
Default : No
Forced : No

Text #5
ID : 7
Format : VobSub
Codec ID : S_VOBSUB
Codec ID/Info : Picture based subtitle format used on DVDs
Duration : 1 h 32 min
Bit rate : 8 148 b/s
Count of elements : 1134
Stream size : 5.41 MiB (0%)
Title : Thai 1080p Out
Language : Thai
Default : No
Forced : No

Text #6
ID : 8
Format : PGS
Codec ID : S_HDMV/PGS
Codec ID/Info : Picture based subtitle format used on BDs/HD-DVDs
Duration : 1 h 32 min
Bit rate : 36.6 kb/s
Count of elements : 2276
Stream size : 24.3 MiB (1%)
Title : Thai PGS
Language : Thai
Default : No
Forced : No

Text #7
ID : 9
Format : PGS
Codec ID : S_HDMV/PGS
Codec ID/Info : Picture based subtitle format used on BDs/HD-DVDs
Duration : 1 h 32 min
Bit rate : 36.7 kb/s
Count of elements : 2276
Stream size : 24.3 MiB (1%)
Title : Thai PGS Yellow
Language : Thai
Default : No
Forced : No

Text #8
ID : 10
Format : PGS
Codec ID : S_HDMV/PGS
Codec ID/Info : Picture based subtitle format used on BDs/HD-DVDs
Duration : 1 h 32 min
Bit rate : 54.6 kb/s
Count of elements : 2268
Stream size : 36.3 MiB (1%)
Title : Thai PGS Big
Language : Thai
Default : No
Forced : No

Text #9
ID : 11
Format : PGS
Codec ID : S_HDMV/PGS
Codec ID/Info : Picture based subtitle format used on BDs/HD-DVDs
Duration : 1 h 32 min
Bit rate : 34.5 kb/s
Count of elements : 2276
Stream size : 22.9 MiB (1%)
Title : Thai PGS Out
Language : Thai
Default : No
Forced : No

Text #10
ID : 12
Format : UTF-8
Codec ID : S_TEXT/UTF8
Codec ID/Info : UTF-8 Plain Text
Duration : 1 h 21 min
Bit rate : 56 b/s
Count of elements : 1068
Stream size : 34.0 KiB (0%)
Title : English
Language : English
Default : No
Forced : No

Text #11
ID : 13
Format : PGS
Codec ID : S_HDMV/PGS
Codec ID/Info : Picture based subtitle format used on BDs/HD-DVDs
Duration : 1 h 24 min
Bit rate : 9 809 b/s
Count of elements : 652
Stream size : 5.92 MiB (0%)
Title : English PGS
Language : English
Default : No
Forced : No



หมายเหตุ ทุกเว็บโหลดแทนกันได้ แต่ต้องเปลี่ยนชื่อให้เรียงกันด้วย


สำหรับสมาชิก VIP เท่านั้น!

[restrict …]

|——————————————————————|

|——————————————————————|

[/restrict]

%d bloggers like this: