Home > Master > [MINI-HD 1080P] แสงกระสือ (2019) Krasue Inhuman Kiss [เสียงไทยมาสเตอร์ 2.0] [MASTER] [MKV]

[MINI-HD 1080P] แสงกระสือ (2019) Krasue Inhuman Kiss [เสียงไทยมาสเตอร์ 2.0] [MASTER] [MKV]

[MINI-HD 1080P] แสงกระสือ (2019) Krasue Inhuman Kiss

Krasue.Inhuman.Kiss.2019.1080p.WEB-DL.x264.AC3.THM2.0[Load2up.com].mkv
Format : Matroska
Format version : Version 4
File size : 2.36 GiB
Duration : 1 h 56 min
Overall bit rate : 2 886 kb/s
Encoded date : UTC 2019-06-16 14:01:37
Writing application : mkvmerge v25.0.0 (‘Prog Noir’) 64-bit
Writing library : libebml v1.3.6 + libmatroska v1.4.9

Video
ID : 1
Format : AVC
Format/Info : Advanced Video Codec
Format profile : [email protected]
Format settings : CABAC / 5 Ref Frames
Format settings, CABAC : Yes
Format settings, ReFrames : 5 frames
Codec ID : V_MPEG4/ISO/AVC
Duration : 1 h 56 min
Bit rate : 2 500 kb/s
Width : 1 920 pixels
Height : 816 pixels
Display aspect ratio : 2.40:1
Frame rate mode : Constant
Frame rate : 25.000 FPS
Color space : YUV
Chroma subsampling : 4:2:0
Bit depth : 8 bits
Scan type : Progressive
Bits/(Pixel*Frame) : 0.064
Stream size : 2.04 GiB (87%)
Title : Krasue.Inhuman.Kiss.2019.1080p.WEB-DL.x264.AC3.THM2.0
Writing library : x264 core 157 r2935 545de2f
Default : Yes
Forced : No
Color range : Limited
Color primaries : BT.709
Transfer characteristics : BT.709
Matrix coefficients : BT.601

Audio
ID : 2
Format : AC-3
Format/Info : Audio Coding 3
Commercial name : Dolby Digital
Codec ID : A_AC3
Duration : 1 h 56 min
Bit rate mode : Constant
Bit rate : 384 kb/s
Channel(s) : 2 channels
Channel layout : L R
Sampling rate : 48.0 kHz
Frame rate : 31.250 FPS (1536 SPF)
Bit depth : 16 bits
Compression mode : Lossy
Delay relative to video : -80 ms
Stream size : 321 MiB (13%)
Title : Thai Master 2.0 From TrueID
Language : Thai
Service kind : Complete Main
Default : Yes
Forced : No



หมายเหตุ ทุกเว็บโหลดแทนกันได้ แต่ต้องเปลี่ยนชื่อให้เรียงกันด้วย

สำหรับสมาชิก VIP เท่านั้น!

[restrict …]

|——————————————————————|

|——————————————————————|

[/restrict]