[MINI-HD 1080P] 18+ Real (2017) [พากย์เกาหลี 5.1] [ซับไทย] [MKV] [ONE2UP]

[MINI-HD 1080P] 18+ Real (2017)

Real ภาพยนตร์เรื่องนี้ได้รับความสนใจเป็นอย่างมากตั้งแต่ก่อนมีการถ่ายทำ ประเด็นสำคัญที่ทำให้ภาพยนตร์เรื่องนี้ถูกจับตามองคือนี่เป็นผลงานแสดงเรื่องสุดท้ายของพระเอกซุปตาร์แนวหน้าเกาหลียุคนี้อย่าง คิมซูฮยอน [Kim Soo-Hyun] ก่อนจะตบเท้าเข้ากรมทหารรับใช้ชาติและนอกจากนี้อีกเรื่องที่ทำให้หนังเรื่องนี้ถูกจับตามองคือการที่หนังได้รับเรท +19 ด้วยเนื้อหาค่อนข้างรุนแรงเพราะหยิบเรื่องของยาเสพติด อาชญากรรม และเซ็กส์มานำเสนอ แต่ที่เรียกเสียงฮือฮาไม่น้อยคือนางเอกสาวสวย ซอลลี่ [Sulli] อดีตเกิร์ลกรุ๊ปแห่งวง f[x] ที่ยอมสลัดภาพสาวน้อยวัยใสมารับบท Sexy เปลืองตัวแสดงฉาก Nude Scene ติดเรทสุดหวาบหวิวในหนังเรื่องนี้

Real [2017] BDRip.H.264.1080p[Load2up.com].mkv
Format : Matroska
Format version : Version 4 / Version 2
File size : 3.39 GiB
Duration : 2 h 17 min
Overall bit rate : 3 524 kb/s
Encoded date : UTC 2010-02-22 21:41:31
Writing application : mkvmerge v5.9.0 (‘On The Loose’) built on Dec 9 2012 15:37:01
Writing library : libebml v1.3.0 + libmatroska v1.4.0

Video
ID : 1
Format : AVC
Format/Info : Advanced Video Codec
Format profile : [email protected]
Format settings, CABAC : Yes
Format settings, ReFrames : 4 frames
Muxing mode : Header stripping
Codec ID : V_MPEG4/ISO/AVC
Duration : 2 h 17 min
Bit rate : 2 885 kb/s
Width : 1 920 pixels
Height : 804 pixels
Display aspect ratio : 2.40:1
Frame rate mode : Constant
Frame rate : 23.976 (24000/1001) FPS
Color space : YUV
Chroma subsampling : 4:2:0
Bit depth : 8 bits
Scan type : Progressive
Bits/(Pixel*Frame) : 0.078
Stream size : 2.71 GiB (80%)
Title : Real [2017] BDRip.H.264.1080p. By Pond
Writing library : x264 core 130 r2273 b3065e6
Language : Korean
Default : Yes
Forced : No
Color range : Limited
Color primaries : BT.709
Transfer characteristics : BT.709
Matrix coefficients : BT.709

Audio
ID : 2
Format : AC-3
Format/Info : Audio Coding 3
Format settings, Endianness : Big
Muxing mode : Header stripping
Codec ID : A_AC3
Duration : 2 h 17 min
Bit rate mode : Constant
Bit rate : 640 kb/s
Channel(s) : 6 channels
Channel positions : Front: L C R, Side: L R, LFE
Sampling rate : 48.0 kHz
Frame rate : 31.250 FPS (1536 spf)
Bit depth : 16 bits
Compression mode : Lossy
Stream size : 631 MiB (18%)
Title : Korean 5.1 [640 Kbps] AC.3
Language : Korean
Service kind : Complete Main
Default : Yes
Forced : No

Text #1
ID : 3
Format : VobSub
Muxing mode : zlib
Codec ID : S_VOBSUB
Codec ID/Info : Picture based subtitle format used on DVDs
Title : Thai 480p.
Language : Thai
Default : No
Forced : No

Text #2
ID : 4
Format : VobSub
Muxing mode : zlib
Codec ID : S_VOBSUB
Codec ID/Info : Picture based subtitle format used on DVDs
Title : Thai 720p.
Language : Thai
Default : No
Forced : No

Text #3
ID : 5
Format : VobSub
Muxing mode : zlib
Codec ID : S_VOBSUB
Codec ID/Info : Picture based subtitle format used on DVDs
Title : Thai 1080p. [White] Language : Thai
Default : Yes
Forced : No

Text #4
ID : 6
Format : VobSub
Muxing mode : zlib
Codec ID : S_VOBSUB
Codec ID/Info : Picture based subtitle format used on DVDs
Title : Thai 1080p. [Yellow] Language : Thai
Default : No
Forced : No

Text #5
ID : 7
Format : PGS
Muxing mode : zlib
Codec ID : S_HDMV/PGS
Codec ID/Info : Picture based subtitle format used on BDs/HD-DVDs
Title : Thai PGS. [White] Language : Thai
Default : No
Forced : No

Text #6
ID : 8
Format : PGS
Muxing mode : zlib
Codec ID : S_HDMV/PGS
Codec ID/Info : Picture based subtitle format used on BDs/HD-DVDs
Title : Thai PGS. [Yellow] Language : Thai
Default : No
Forced : No



หมายเหตุ ทุกเว็บโหลดแทนกันได้ แต่ต้องเปลี่ยนชื่อให้เรียงกันด้วย

สำหรับสมาชิก VIP เท่านั้น!

[restrict …]

|——————————————————————|

|——————————————————————|

[/restrict]