[MINI-HD 720P] ฉลาดเกมส์โกง (2017) Bad Genius [พากย์ไทย 5.1] [ซับไทย] [MKV] [ONE2UP]

[MINI-HD 1080P] ฉลาดเกมส์โกง (2017) Bad Genius

“ฉลาดเกมส์โกง” เรื่องราวของเด็กฉลาด กับภารกิจโกงข้อสอบ เปลี่ยนกระดาษคำตอบให้เป็นเงินล้าน ขอต้อนรับทุกคนเข้าสู่ “ธุรกิจกลางสนามสอบ” ของ ลิน (ออกแบบ-ชุติมณฑน์ จึงเจริญสุขยิ่ง) นักเรียนทุนเจ้าของเกรดเฉลี่ย 4.00 ทุกปีการศึกษา ธุรกิจที่มีจุดเริ่มต้นจากการช่วยเพื่อนสนิทอย่าง เกรซ (อุ้ม อิษยา ฮอสุวรรณ) เด็กกิจกรรมตัวยงแต่ผลการเรียนย่ำแย่ และ พัฒน์ (เจมส์ ธีรดนย์ ศุภพันธุ์ภิญโญ) เด็กบ้านรวยที่คิดว่าเงินซื้อได้ทุกอย่าง ด้วยการแชร์คำตอบกลางห้องสอบ จนกลายเป็นวงการลอกขนาดใหญ่ ที่นักเรียนหลายคนในโรงเรียนยินดีจ่ายค่าตอบแทนแบบสูงลิบ แลกกับการได้รับคำตอบจากอัจฉริยะอย่างลิน

Bad.Genius.2017.DVDRip[Load2up.com].mkv
Format : Matroska
Format version : Version 4 / Version 2
File size : 2.14 GiB
Duration : 2 h 4 min
Overall bit rate : 2 456 kb/s
Movie name : Bad Genius (2017) DVDRip
Encoded date : UTC 2017-11-14 22:41:07
Writing application : mkvmerge v9.8.0 (‘Kuglblids’) 64bit
Writing library : libebml v1.3.4 + libmatroska v1.4.5

Video
ID : 1
Format : AVC
Format/Info : Advanced Video Codec
Format profile : High@L3
Format settings, CABAC : Yes
Format settings, ReFrames : 4 frames
Codec ID : V_MPEG4/ISO/AVC
Duration : 2 h 4 min
Bit rate : 2 002 kb/s
Width : 720 pixels
Height : 300 pixels
Display aspect ratio : 2.40:1
Frame rate mode : Constant
Frame rate : 25.000 FPS
Color space : YUV
Chroma subsampling : 4:2:0
Bit depth : 8 bits
Scan type : Progressive
Bits/(Pixel*Frame) : 0.371
Stream size : 1.74 GiB (82%)
Title : Bad Genius (2017) DVDRip
Writing library : x264 core 130 r2273 b3065e6
Language : English
Default : Yes
Forced : No
Color range : Limited
Color primaries : BT.601 PAL
Transfer characteristics : BT.709
Matrix coefficients : BT.601

Audio
ID : 2
Format : AC-3
Format/Info : Audio Coding 3
Format settings, Endianness : Big
Codec ID : A_AC3
Duration : 2 h 4 min
Bit rate mode : Constant
Bit rate : 448 kb/s
Channel(s) : 6 channels
Channel positions : Front: L C R, Side: L R, LFE
Sampling rate : 48.0 kHz
Frame rate : 31.250 FPS (1536 spf)
Bit depth : 16 bits
Compression mode : Lossy
Stream size : 399 MiB (18%)
Title : Thai DVD Master
Language : Thai
Service kind : Complete Main
Default : Yes
Forced : No

Text #1
ID : 3
Format : VobSub
Codec ID : S_VOBSUB
Codec ID/Info : Picture based subtitle format used on DVDs
Duration : 1 h 58 min
Bit rate : 3 942 b/s
Count of elements : 1335
Stream size : 3.33 MiB (0%)
Language : Thai
Default : No
Forced : No

Text #2
ID : 4
Format : VobSub
Codec ID : S_VOBSUB
Codec ID/Info : Picture based subtitle format used on DVDs
Duration : 1 h 7 min
Bit rate : 436 b/s
Count of elements : 82
Stream size : 215 KiB (0%)
Language : Thai
Default : No
Forced : No



หมายเหตุ ทุกเว็บโหลดแทนกันได้ แต่ต้องเปลี่ยนชื่อให้เรียงกันด้วย

Cloud2free

สำหรับสมาชิก VIP เท่านั้น!

[restrict …]

|——————————————————————|

|——————————————————————|

[/restrict]

%d bloggers like this: