[1080p Super HQ] The Lost City (2022) ผจญภัยนครสาบสูญ [เสียงอังกฤษ DTS-5.1 + พากย์ไทย 5.1 Master แท้.] [บรรยาย: ไทย-อังกฤษ Master + ซับ PGS คมชัด]

The Lost City (2022) ผจญภัยนครสาบสูญ

{MINI Super-HQ}_The.Lost.City.(2022).1080p.BrRip.x264.DTS-5.1.THD[Load2up.com].mkv
Format : Matroska
Format version : Version 4
File size : 4.20 GiB
Duration : 1 h 51 min
Overall bit rate : 5 376 kb/s
Movie name : {MINI Super-HQ}_The.Lost.City.(2022).1080p.BrRip.x264.DTS-5.1.THD
Encoded date : UTC 2022-07-16 20:35:39
Writing application : mkvmerge v9.8.0 (‘Kuglblids’) 64bit
Writing library : libebml v1.3.4 + libmatroska v1.4.5

Video
ID : 1
Format : AVC
Format/Info : Advanced Video Codec
Format profile : Main@L4.1
Format settings : CABAC / 5 Ref Frames
Format settings, CABAC : Yes
Format settings, ReFrames : 5 frames
Codec ID : V_MPEG4/ISO/AVC
Duration : 1 h 51 min
Bit rate : 4 000 kb/s
Width : 1 920 pixels
Height : 804 pixels
Display aspect ratio : 2.40:1
Frame rate mode : Constant
Frame rate : 23.976 (24000/1001) FPS
Color space : YUV
Chroma subsampling : 4:2:0
Bit depth : 8 bits
Scan type : Progressive
Bits/(Pixel*Frame) : 0.108
Stream size : 3.12 GiB (74%)
Title : {MINI Super-HQ}_The.Lost.City.(2022).1080p.BrRip.x264.DTS-5.1.THD
Writing library : x264 core 157 r2935 545de2f
Language : English
Default : Yes
Forced : No
Color range : Limited
Color primaries : BT.709
Transfer characteristics : BT.709
Matrix coefficients : BT.709

Audio #1
ID : 2
Format : AC-3
Format/Info : Audio Coding 3
Commercial name : Dolby Digital
Codec ID : A_AC3
Duration : 1 h 51 min
Bit rate mode : Constant
Bit rate : 384 kb/s
Channel(s) : 6 channels
Channel layout : L R C LFE Ls Rs
Sampling rate : 48.0 kHz
Frame rate : 31.250 FPS (1536 SPF)
Bit depth : 16 bits
Compression mode : Lossy
Stream size : 307 MiB (7%)
Title : Thai DD 5.1 Master
Language : Thai
Service kind : Complete Main
Default : Yes
Forced : Yes

Audio #2
ID : 3
Format : DTS
Format/Info : Digital Theater Systems
Codec ID : A_DTS
Duration : 1 h 51 min
Bit rate mode : Constant
Bit rate : 755 kb/s
Channel(s) : 6 channels
Channel layout : C L R Ls Rs LFE
Sampling rate : 48.0 kHz
Frame rate : 93.750 FPS (512 SPF)
Bit depth : 24 bits
Compression mode : Lossy
Stream size : 603 MiB (14%)
Title : English DTS-5.1
Language : English
Default : No
Forced : No

Text #1
ID : 4
Format : PGS
Codec ID : S_HDMV/PGS
Codec ID/Info : Picture based subtitle format used on BDs/HD-DVDs
Duration : 1 h 51 min
Bit rate : 38.2 kb/s
Count of elements : 3306
Stream size : 30.4 MiB (1%)
Title : Thai PGS BluRay Master
Language : Thai
Default : Yes
Forced : Yes

Text #2
ID : 5
Format : VobSub
Codec ID : S_VOBSUB
Codec ID/Info : Picture based subtitle format used on DVDs
Duration : 1 h 51 min
Bit rate : 8 815 b/s
Count of elements : 1651
Stream size : 7.01 MiB (0%)
Title : Thai Vob BluRay Master
Language : Thai
Default : No
Forced : No

Text #3
ID : 6
Format : PGS
Codec ID : S_HDMV/PGS
Codec ID/Info : Picture based subtitle format used on BDs/HD-DVDs
Duration : 1 h 51 min
Bit rate : 51.2 kb/s
Count of elements : 3306
Stream size : 40.7 MiB (1%)
Title : Thai PGS
Language : Thai
Default : No
Forced : No

Text #4
ID : 7
Format : VobSub
Codec ID : S_VOBSUB
Codec ID/Info : Picture based subtitle format used on DVDs
Duration : 1 h 51 min
Bit rate : 12.8 kb/s
Count of elements : 1651
Stream size : 10.2 MiB (0%)
Title : Thai VobSub
Language : Thai
Default : No
Forced : No

Text #5
ID : 8
Format : PGS
Codec ID : S_HDMV/PGS
Codec ID/Info : Picture based subtitle format used on BDs/HD-DVDs
Duration : 1 h 51 min
Bit rate : 51.2 kb/s
Count of elements : 3306
Stream size : 40.7 MiB (1%)
Title : Thai PGS Out
Language : Thai
Default : No
Forced : No

Text #6
ID : 9
Format : VobSub
Codec ID : S_VOBSUB
Codec ID/Info : Picture based subtitle format used on DVDs
Duration : 1 h 51 min
Bit rate : 12.8 kb/s
Count of elements : 1651
Stream size : 10.2 MiB (0%)
Title : Thai VobSub Out
Language : Thai
Default : No
Forced : No

Text #7
ID : 10
Format : VobSub
Codec ID : S_VOBSUB
Codec ID/Info : Picture based subtitle format used on DVDs
Duration : 1 h 51 min
Bit rate : 12.8 kb/s
Count of elements : 1651
Stream size : 10.2 MiB (0%)
Title : Thai VobSub [Yellow] Language : Thai
Default : No
Forced : No

Text #8
ID : 11
Format : PGS
Codec ID : S_HDMV/PGS
Codec ID/Info : Picture based subtitle format used on BDs/HD-DVDs
Duration : 1 h 45 min
Bit rate : 51.4 kb/s
Count of elements : 3314
Stream size : 38.6 MiB (1%)
Title : English PGS
Language : English
Default : No
Forced : No



หมายเหตุ ทุกเว็บโหลดแทนกันได้ แต่ต้องเปลี่ยนชื่อให้เรียงกันด้วย

สำหรับสมาชิก VIP เท่านั้น!

%d bloggers like this: