Home > VIP > [ซูดชัดV.2 720p] 12 Strong (2018) 12 ตายไม่เป็น [พากย์ไทยโรง 5.1 + อังกฤษ] [MKV] [ONE2UP]

[ซูดชัดV.2 720p] 12 Strong (2018) 12 ตายไม่เป็น [พากย์ไทยโรง 5.1 + อังกฤษ] [MKV] [ONE2UP]

12 Strong (2018) 12 ตายไม่เป็น

12 Strong เรื่องราวของหน่วยรบพิเศษ 12 คน ที่ได้รับคัดเลือกจากรัฐบาลสหรัฐเพื่อปฏิบัติการลับสุดยอดในอัฟกานิสถานในช่วงหลังจากเกิดเหตุการณ์วินาศกรรมช็อคโลกที่นิวยอร์ค ในวันที่ 11 กันยายน ปี 2001 เพียงไม่กี่วัน โดยหน้าที่ของพวกเขาคือ ลักลอบเขาไปในดินแดนที่ปกครองโดย กลุ่มตาลีบันที่เชื่อกันว่าให้การสนับสนุนองค์การก่อการร้าย อัลเคดาห์ ที่นำโดยโอซามาบินลาเดน เพื่อประสานกับกลุ่มพันธมิตรทางเหนือในการทำสงครามภาคพื้นดินกับฝ่ายตาลีบัน ก่อนที่ รัฐบาลอเมริกาจะปฏิบัติการปูพรมทางอากาศต่อไป อย่างไรก็ตามด้วยสภาพภูมิศาสตร์ที่เต็มไปด้วยภูเขา พวกเขาจำต้องใช้ยุทธวีธีการรบแบบโบราณนั่นคือการใช้ม้าในการเดินทางผ่านเขตของศัตรู เพื่อยึดมาซาร์ อี ชารีฟ ซึ่งเคยเป็นฐานที่มั่นของกลุ่มพันธมิตรทางเหนือ คืนมาจากกลุ่มตาลีบันให้ได้ นี่จึงกลายเป็นที่มาของวีกรรมที่โลกลืมของเหล่านักรบบนหลังม้าทั้ง 12 คน

12.Strong.2018.720p.HDCAM-X264.AC-3.THR2.0[Load2up.com].mkv
Format : Matroska
Format version : Version 4 / Version 2
File size : 1.71 GiB
Duration : 1 h 58 min
Overall bit rate : 2 054 kb/s
Movie name : 12.Strong.2018.720p.HDCAM-X264.AC-3.THR2.0
Encoded date : UTC 2018-03-24 10:20:15
Writing application : mkvmerge v9.9.0 (‘Pick Up’) 64bit
Writing library : libebml v1.3.4 + libmatroska v1.4.5
Cover : Yes
Attachments : cover.jpg

Video
ID : 1
Format : AVC
Format/Info : Advanced Video Codec
Format profile : [email protected]
Format settings, CABAC : Yes
Format settings, ReFrames : 3 frames
Codec ID : V_MPEG4/ISO/AVC
Duration : 1 h 58 min
Bit rate : 1 667 kb/s
Width : 1 280 pixels
Height : 504 pixels
Display aspect ratio : 2.540
Frame rate mode : Constant
Frame rate : 29.970 (30000/1001) FPS
Color space : YUV
Chroma subsampling : 4:2:0
Bit depth : 8 bits
Scan type : Progressive
Bits/(Pixel*Frame) : 0.086
Stream size : 1.38 GiB (81%)
Title : 12.Strong.2018.720p.HDCAM-X264.AC-3.THR2.0
Writing library : x264 core 152 r2851bm ba24899
Language : English
Default : Yes
Forced : No

Audio #1
ID : 2
Format : AC-3
Format/Info : Audio Coding 3
Format settings, Endianness : Big
Codec ID : A_AC3
Duration : 1 h 58 min
Bit rate mode : Constant
Bit rate : 192 kb/s
Channel(s) : 2 channels
Channel positions : Front: L R
Sampling rate : 48.0 kHz
Frame rate : 31.250 FPS (1536 spf)
Bit depth : 16 bits
Compression mode : Lossy
Stream size : 163 MiB (9%)
Title : THR 2.0 Modified By ~Mr.Captain~
Language : Thai
Service kind : Complete Main
Default : Yes
Forced : No

Audio #2
ID : 3
Format : MPEG Audio
Format version : Version 1
Format profile : Layer 3
Mode : Joint stereo
Codec ID : A_MPEG/L3
Codec ID/Hint : MP3
Duration : 1 h 58 min
Bit rate mode : Constant
Bit rate : 192 kb/s
Channel(s) : 2 channels
Sampling rate : 48.0 kHz
Frame rate : 41.667 FPS (1152 spf)
Compression mode : Lossy
Stream size : 163 MiB (9%)
Title : English 2.0
Language : English
Default : No
Forced : No



หมายเหตุ ทุกเว็บโหลดแทนกันได้ แต่ต้องเปลี่ยนชื่อให้เรียงกันด้วย

สำหรับสมาชิก VIP เท่านั้น!

[restrict …]

|——————————————————————|

|——————————————————————|

[/restrict]

%d bloggers like this: