Home > VIP > [V.1] [720p] Birds of Prey (2020) ทีมนกผู้ล่า กับฮาร์ลีย์ ควินน์ ผู้เริดเชิด [พากย์ไทยโรง 2.0 + เสียงอังกฤษ 2.0] [MKV]

[V.1] [720p] Birds of Prey (2020) ทีมนกผู้ล่า กับฮาร์ลีย์ ควินน์ ผู้เริดเชิด [พากย์ไทยโรง 2.0 + เสียงอังกฤษ 2.0] [MKV]

Birds of Prey (2020) ทีมนกผู้ล่า กับฮาร์ลีย์ ควินน์ ผู้เริดเชิด

Birds.of.Prey.2020.720p.HDCAM.THR2.0.x264[Load2up.com].mkv
Format : Matroska
Format version : Version 4
File size : 2.53 GiB
Duration : 1 h 41 min
Overall bit rate mode : Variable
Overall bit rate : 3 582 kb/s
Movie name : Birds.of.Prey.2020.720p.HDCAM.THR2.0.x264
Encoded date : UTC 2020-02-10 10:08:05
Writing application : mkvmerge v40.0.0 (‘Old Town Road + Pony’) 64-bit
Writing library : libebml v1.3.9 + libmatroska v1.5.2 / Lavf58.12.100

Video
ID : 1
Format : AVC
Format/Info : Advanced Video Codec
Format profile : [email protected]
Format settings : CABAC / 6 Ref Frames
Format settings, CABAC : Yes
Format settings, ReFrames : 6 frames
Codec ID : V_MPEG4/ISO/AVC
Duration : 1 h 41 min
Bit rate mode : Variable
Bit rate : 3 000 kb/s
Maximum bit rate : 18.4 Mb/s
Width : 1 280 pixels
Height : 536 pixels
Display aspect ratio : 2.40:1
Frame rate mode : Constant
Frame rate : 29.970 (29970/1000) FPS
Original frame rate : 30.000 FPS
Standard : Component
Color space : YUV
Chroma subsampling : 4:2:0
Bit depth : 8 bits
Scan type : Progressive
Bits/(Pixel*Frame) : 0.146
Stream size : 2.10 GiB (83%)
Title : Birds.of.Prey.2020.720p.HDCAM.THR2.0.x264
Writing library : x264 core 155
Language : English
Default : Yes
Forced : No
Color range : Limited
Color primaries : BT.709
Transfer characteristics : BT.709
Matrix coefficients : BT.709

Audio #1
ID : 2
Format : AC-3
Format/Info : Audio Coding 3
Commercial name : Dolby Digital
Codec ID : A_AC3
Duration : 1 h 41 min
Bit rate mode : Constant
Bit rate : 384 kb/s
Channel(s) : 2 channels
Channel layout : L R
Sampling rate : 48.0 kHz
Frame rate : 31.250 FPS (1536 SPF)
Bit depth : 16 bits
Compression mode : Lossy
Stream size : 278 MiB (11%)
Title : ThaiRong 2.0 @ 384 kb/s
Language : Thai
Service kind : Complete Main
Default : Yes
Forced : Yes

Audio #2
ID : 3
Format : AC-3
Format/Info : Audio Coding 3
Commercial name : Dolby Digital
Codec ID : A_AC3
Duration : 1 h 41 min
Bit rate mode : Constant
Bit rate : 224 kb/s
Channel(s) : 2 channels
Channel layout : L R
Sampling rate : 48.0 kHz
Frame rate : 31.250 FPS (1536 SPF)
Bit depth : 16 bits
Compression mode : Lossy
Stream size : 162 MiB (6%)
Title : English 2.0 @ 224 kb/s
Language : English
Service kind : Complete Main
Default : No
Forced : No



หมายเหตุ ทุกเว็บโหลดแทนกันได้ แต่ต้องเปลี่ยนชื่อให้เรียงกันด้วย

สำหรับสมาชิก VIP เท่านั้น!

[restrict …]

|——————————————————————|

|——————————————————————|

[/restrict]

%d bloggers like this: