Home > VIP > [หนังซูม] The Avengers Infinity War (2018) อินฟินิตีวอร์ มหาสงครามอัญมณี [พากย์ไทยโรง] [MKV] [ONE2UP]

[หนังซูม] The Avengers Infinity War (2018) อินฟินิตีวอร์ มหาสงครามอัญมณี [พากย์ไทยโรง] [MKV] [ONE2UP]

[หนังซูม] The Avengers Infinity War (2018) อินฟินิตีวอร์ มหาสงครามอัญมณี

Avengers-Infinity-War-1080p-Cam-ThaiR\Avengers-Infinity-War-1080p-Cam-ThaiR[Load2up.com].mkv
Format : Matroska
Format version : Version 2
File size : 2.84 GiB
Duration : 2 h 19 min
Overall bit rate : 2 922 kb/s
Encoded date : UTC 2018-05-02 22:23:44
Writing application : mkvmerge v3.4.0 (‘Rapunzel’) built on May 15 2010 09:38:20
Writing library : libebml v0.8.0 + libmatroska v0.9.0

Video
ID : 1
Format : AVC
Format/Info : Advanced Video Codec
Format profile : [email protected]
Format settings, CABAC : Yes
Format settings, ReFrames : 2 frames
Codec ID : V_MPEG4/ISO/AVC
Duration : 2 h 19 min
Bit rate : 2 416 kb/s
Width : 1 920 pixels
Height : 800 pixels
Display aspect ratio : 2.40:1
Frame rate mode : Constant
Frame rate : 30.000 FPS
Color space : YUV
Chroma subsampling : 4:2:0
Bit depth : 8 bits
Scan type : Progressive
Bits/(Pixel*Frame) : 0.052
Stream size : 2.35 GiB (83%)
Default : Yes
Forced : No

Audio
ID : 2
Format : AC-3
Format/Info : Audio Coding 3
Format settings, Endianness : Big
Codec ID : A_AC3
Duration : 2 h 19 min
Bit rate mode : Constant
Bit rate : 448 kb/s
Channel(s) : 2 channels
Channel positions : Front: L R
Sampling rate : 48.0 kHz
Frame rate : 31.250 FPS (1536 spf)
Bit depth : 16 bits
Compression mode : Lossy
Delay relative to video : 25 s 399 ms
Stream size : 446 MiB (15%)
Service kind : Complete Main
Default : Yes
Forced : No



หมายเหตุ ทุกเว็บโหลดแทนกันได้ แต่ต้องเปลี่ยนชื่อให้เรียงกันด้วย

สำหรับสมาชิก VIP เท่านั้น!

[restrict …]

|——————————————————————|

|——————————————————————|

[/restrict]

%d bloggers like this: