Home > VIP Cornfile > [MINI-HD 720P] Geostorm (2017) จีโอสตอร์ม เมฆาถล่มโลก [พากย์ไทยโรง + อังกฤษ] [MKV] [ONE2UP]

[MINI-HD 720P] Geostorm (2017) จีโอสตอร์ม เมฆาถล่มโลก [พากย์ไทยโรง + อังกฤษ] [MKV] [ONE2UP]

[MINI-HD 720P] Geostorm (2017) จีโอสตอร์ม เมฆาถล่มโลก

Geostorm เรื่องราวสุดระทึกเกิดขึ้นเมื่อดาวเทียมควบคุมภูมิอากาศของโลกเกิดความเสียหาย จนทำให้สภาพอากาศทั่วโลกแปรปรวนถึงขีดสุด แต่เมื่อชายสองพี่น้องเดินทางขึ้นไปซ่อมแซมดาวเทียมในอวกาศ สิ่งที่พวกเขาค้นพบคือแผนการลอบสังหารประธานาธิบดีสหรัฐฯ ที่ซ่อนอยู่เบื้องหลังหายนะครั้งนี้

Geostorm.2017.720p.KORSUB.HDRip.x264.AC-3.ThaiRong2.0[Load2up.com].mkv
Format : Matroska
Format version : Version 4 / Version 2
File size : 2.96 GiB
Duration : 1 h 48 min
Overall bit rate : 3 915 kb/s
Movie name : [email protected]
Encoded date : UTC 2017-11-20 15:40:24
Writing application : mkvmerge v9.9.0 (‘Pick Up’) 64bit
Writing library : libebml v1.3.4 + libmatroska v1.4.5
Cover : Yes
Attachments : cover.jpg

Video
ID : 1
Format : AVC
Format/Info : Advanced Video Codec
Format profile : [email protected]
Format settings, CABAC : Yes
Format settings, ReFrames : 4 frames
Codec ID : V_MPEG4/ISO/AVC
Duration : 1 h 48 min
Bit rate : 3 500 kb/s
Width : 1 280 pixels
Height : 534 pixels
Display aspect ratio : 2.40:1
Original display aspect rat : 2.40:1
Frame rate mode : Constant
Frame rate : 30.000 FPS
Color space : YUV
Chroma subsampling : 4:2:0
Bit depth : 8 bits
Scan type : Progressive
Bits/(Pixel*Frame) : 0.171
Stream size : 2.64 GiB (89%)
Title : [email protected]
Writing library : x264 core 148 r2795M aaa9aa8
Encoding settings : cabac=1 / ref=4 / deblock=1:0:0 / analyse=0x3:0x113 / me=umh / subme=8 / psy=1 / psy_rd=1.00:0.00 / mixed_ref=1 / me_range=16 / chroma_me=1 / trellis=2 / 8x8dct=1 / cqm=0 / deadzone=21,11 / fast_pskip=1 / chroma_qp_offset=-2 / threads=40 / lookahead_threads=4 / sliced_threads=0 / nr=0 / decimate=1 / interlaced=0 / bluray_compat=0 / constrained_intra=0 / bframes=3 / b_pyramid=2 / b_adapt=2 / b_bias=0 / direct=3 / weightb=1 / open_gop=0 / weightp=2 / keyint=250 / keyint_min=25 / scenecut=40 / intra_refresh=0 / rc_lookahead=50 / rc=abr / mbtree=1 / bitrate=3500 / ratetol=1.0 / qcomp=0.60 / qpmin=0 / qpmax=69 / qpstep=4 / ip_ratio=1.40 / aq=1:1.00
Language : Korean
Default : Yes
Forced : No

Audio #1
ID : 2
Format : AC-3
Format/Info : Audio Coding 3
Format settings, Endianness : Big
Codec ID : A_AC3
Duration : 1 h 48 min
Bit rate mode : Constant
Bit rate : 192 kb/s
Channel(s) : 2 channels
Channel positions : Front: L R
Sampling rate : 48.0 kHz
Frame rate : 31.250 FPS (1536 spf)
Bit depth : 16 bits
Compression mode : Lossy
Delay relative to video : -43 ms
Stream size : 148 MiB (5%)
Title : ThaiRong 2.0 AC-3 By ~Mr.Captain~
Language : Thai
Service kind : Complete Main
Default : Yes
Forced : No

Audio #2
ID : 3
Format : AAC
Format/Info : Advanced Audio Codec
Format profile : LC
Codec ID : A_AAC
Duration : 1 h 48 min
Bit rate : 224 kb/s
Channel(s) : 2 channels
Channel positions : Front: L R
Sampling rate : 48.0 kHz
Frame rate : 46.875 FPS (1024 spf)
Compression mode : Lossy
Delay relative to video : -43 ms
Stream size : 173 MiB (6%)
Title : English AAC
Language : English
Default : No
Forced : No



หมายเหตุ ทุกเว็บโหลดแทนกันได้ แต่ต้องเปลี่ยนชื่อให้เรียงกันด้วย


สำหรับสมาชิก VIP เท่านั้น!

[restrict …]

|——————————————————————|

|——————————————————————|

[/restrict]

%d bloggers like this: