Home > Mini-HD > [MINI-HD 1080P] Uncle Drew (2018) อังเคิล ดรูว์ สอนให้รู้จักคำว่าแชมป์ [เสียงอังกฤษ DTS Master From Blu-Ray] [บรรยาย: ไทย-อังกฤษ Master + ซับ PGS คมชัด] [MKV]

[MINI-HD 1080P] Uncle Drew (2018) อังเคิล ดรูว์ สอนให้รู้จักคำว่าแชมป์ [เสียงอังกฤษ DTS Master From Blu-Ray] [บรรยาย: ไทย-อังกฤษ Master + ซับ PGS คมชัด] [MKV]

Uncle Drew (2018) อังเคิล ดรูว์ สอนให้รู้จักคำว่าแชมป์

{MINI Super-HQ}_Uncle.Drew.2018.BluRay.1080p.DTS.x264.Load2up.com.mkv
Format : Matroska
Format version : Version 4
File size : 3.62 GiB
Duration : 1 h 43 min
Overall bit rate : 5 018 kb/s
Movie name : {MINI Super-HQ}_Uncle.Drew.2018.BluRay.1080p.DTS.x264.THM
Encoded date : UTC 2020-04-27 16:34:50
Writing application : mkvmerge v9.8.0 (‘Kuglblids’) 64bit
Writing library : libebml v1.3.4 + libmatroska v1.4.5

Video
ID : 1
Format : AVC
Format/Info : Advanced Video Codec
Format profile : [email protected]
Format settings : CABAC / 4 Ref Frames
Format settings, CABAC : Yes
Format settings, ReFrames : 4 frames
Codec ID : V_MPEG4/ISO/AVC
Duration : 1 h 43 min
Bit rate : 3 598 kb/s
Width : 1 920 pixels
Height : 1 036 pixels
Display aspect ratio : 1.85:1
Frame rate mode : Constant
Frame rate : 23.976 (24000/1001) FPS
Color space : YUV
Chroma subsampling : 4:2:0
Bit depth : 8 bits
Scan type : Progressive
Bits/(Pixel*Frame) : 0.075
Stream size : 2.60 GiB (72%)
Title : {MINI Super-HQ}_Uncle.Drew.2018.BluRay.1080p.DTS.x264.THM
Language : English
Default : Yes
Forced : Yes

Audio #1
ID : 2
Format : DTS
Format/Info : Digital Theater Systems
Codec ID : A_DTS
Duration : 1 h 43 min
Bit rate mode : Constant
Bit rate : 755 kb/s
Channel(s) : 6 channels
Channel layout : C L R Ls Rs LFE
Sampling rate : 48.0 kHz
Frame rate : 93.750 FPS (512 SPF)
Bit depth : 24 bits
Compression mode : Lossy
Stream size : 558 MiB (15%)
Title : English DTS
Language : English
Default : Yes
Forced : Yes

Audio #2
ID : 3
Format : AAC LC
Format/Info : Advanced Audio Codec Low Complexity
Codec ID : A_AAC-2
Duration : 1 h 43 min
Bit rate : 318 kb/s
Channel(s) : 2 channels
Channel layout : L R
Sampling rate : 48.0 kHz
Frame rate : 46.875 FPS (1024 SPF)
Compression mode : Lossy
Stream size : 235 MiB (6%)
Title : English AAC
Language : English
Default : No
Forced : No

Text #1
ID : 4
Format : VobSub
Codec ID : S_VOBSUB
Codec ID/Info : Picture based subtitle format used on DVDs
Duration : 1 h 39 min
Bit rate : 8 059 b/s
Count of elements : 1948
Stream size : 5.73 MiB (0%)
Title : Thai 720p
Language : Thai
Default : No
Forced : No

Text #2
ID : 5
Format : VobSub
Codec ID : S_VOBSUB
Codec ID/Info : Picture based subtitle format used on DVDs
Duration : 1 h 39 min
Bit rate : 14.8 kb/s
Count of elements : 1948
Stream size : 10.5 MiB (0%)
Title : Thai 1080p
Language : Thai
Default : Yes
Forced : Yes

Text #3
ID : 6
Format : VobSub
Codec ID : S_VOBSUB
Codec ID/Info : Picture based subtitle format used on DVDs
Duration : 1 h 39 min
Bit rate : 14.7 kb/s
Count of elements : 1948
Stream size : 10.5 MiB (0%)
Title : Thai 1080p Yellow
Language : Thai
Default : No
Forced : No

Text #4
ID : 7
Format : VobSub
Codec ID : S_VOBSUB
Codec ID/Info : Picture based subtitle format used on DVDs
Duration : 1 h 39 min
Bit rate : 25.3 kb/s
Count of elements : 1948
Stream size : 18.0 MiB (0%)
Title : Thai 1080p Big
Language : Thai
Default : No
Forced : No

Text #5
ID : 8
Format : PGS
Codec ID : S_HDMV/PGS
Codec ID/Info : Picture based subtitle format used on BDs/HD-DVDs
Duration : 1 h 39 min
Bit rate : 62.2 kb/s
Count of elements : 3896
Stream size : 44.2 MiB (1%)
Title : Thai 1080p PGS
Language : Thai
Default : No
Forced : No

Text #6
ID : 9
Format : PGS
Codec ID : S_HDMV/PGS
Codec ID/Info : Picture based subtitle format used on BDs/HD-DVDs
Duration : 1 h 39 min
Bit rate : 62.1 kb/s
Count of elements : 3896
Stream size : 44.1 MiB (1%)
Title : Thai 1080p Yellow PGS
Language : Thai
Default : No
Forced : No

Text #7
ID : 10
Format : PGS
Codec ID : S_HDMV/PGS
Codec ID/Info : Picture based subtitle format used on BDs/HD-DVDs
Duration : 1 h 39 min
Bit rate : 104 kb/s
Count of elements : 3896
Stream size : 74.1 MiB (2%)
Title : Thai 1080p Big PGS
Language : Thai
Default : No
Forced : No

Text #8
ID : 11
Format : PGS
Codec ID : S_HDMV/PGS
Codec ID/Info : Picture based subtitle format used on BDs/HD-DVDs
Duration : 1 h 38 min
Bit rate : 66.8 kb/s
Count of elements : 3810
Stream size : 47.2 MiB (1%)
Title : English
Language : English
Default : No
Forced : No



หมายเหตุ ทุกเว็บโหลดแทนกันได้ แต่ต้องเปลี่ยนชื่อให้เรียงกันด้วย


สำหรับสมาชิก VIP เท่านั้น!

[restrict …]

|——————————————————————|

|——————————————————————|

[/restrict]

%d bloggers like this: