Home > Master > [MINI-HD 1080P] Z Storm (2014) คนคมโค่นพายุ [พากย์ไทย 5.1 + จีน 5.1] [ซับอังกฤษ] [MASTER] [MKV] [ONE2UP] [Filefenix]

[MINI-HD 1080P] Z Storm (2014) คนคมโค่นพายุ [พากย์ไทย 5.1 + จีน 5.1] [ซับอังกฤษ] [MASTER] [MKV] [ONE2UP] [Filefenix]

[MINI-HD 1080P] Z Storm (2014) คนคมโค่นพายุ

เรื่องราวความขัดแย้งที่เกิดขึ้นระหว่าง หน่วยปราบปรามคอรัปชั่น ICAC กับ เจ้าหน้าที่ตำรวจฮ่องกง และรัฐบาลในการตามหาข้อเท็จจริงว่ามีการทุจริตเกิดขึ้นกับกองทุนการกุศลหรือไม่ ซึ่งเมื่อมีผลประโยชน์ก้อนโตเข้ามาเกี่ยวข้อง กับภารกิจนี้จึงอันตรายและท้าทายกว่าที่คิด เกมหักเหลี่ยมเฉือนคมระหว่างผู้มีอำนาจ และผู้รักษากฎหมายจึงเริ่มต้น

Z.Storm.2014.1080p.BrRip.AC3.x264[Load2up.com].mkv
Format : Matroska
Format version : Version 4 / Version 2
File size : 3.75 GiB
Duration : 1 h 31 min
Overall bit rate : 5 845 kb/s
Movie name : {MINI Super-HQ}_Z.Storm.2014.1080p.BrRip.AC3.x264
Encoded date : UTC 2010-02-22 21:41:31
Writing application : mkvmerge v5.9.0 (‘On The Loose’) built on Dec 9 2012 15:37:01
Writing library : libebml v1.3.0 + libmatroska v1.4.0

Video
ID : 1
Format : AVC
Format/Info : Advanced Video Codec
Format profile : [email protected]
Format settings, CABAC : Yes
Format settings, ReFrames : 4 frames
Codec ID : V_MPEG4/ISO/AVC
Duration : 1 h 31 min
Bit rate : 4 777 kb/s
Width : 1 920 pixels
Height : 804 pixels
Display aspect ratio : 2.40:1
Frame rate mode : Constant
Frame rate : 24.000 FPS
Color space : YUV
Chroma subsampling : 4:2:0
Bit depth : 8 bits
Scan type : Progressive
Bits/(Pixel*Frame) : 0.129
Stream size : 3.01 GiB (80%)
Title : {MINI Super-HQ}_Z.Storm.2014.1080p.BrRip.AC3.x264
Writing library : x264 core 130 r2273 b3065e6
Language : English
Default : Yes
Forced : No
Color range : Limited
Color primaries : BT.709
Transfer characteristics : BT.709
Matrix coefficients : BT.709

Audio #1
ID : 2
Format : AC-3
Format/Info : Audio Coding 3
Format settings, Endianness : Big
Codec ID : A_AC3
Duration : 1 h 31 min
Bit rate mode : Constant
Bit rate : 384 kb/s
Channel(s) : 6 channels
Channel positions : Front: L C R, Side: L R, LFE
Sampling rate : 48.0 kHz
Frame rate : 31.250 FPS (1536 spf)
Bit depth : 16 bits
Compression mode : Lossy
Stream size : 252 MiB (7%)
Title : Thai Master
Language : Thai
Service kind : Complete Main
Default : Yes
Forced : Yes

Audio #2
ID : 3
Format : AC-3
Format/Info : Audio Coding 3
Format settings, Endianness : Big
Codec ID : A_AC3
Duration : 1 h 31 min
Bit rate mode : Constant
Bit rate : 640 kb/s
Channel(s) : 6 channels
Channel positions : Front: L C R, Side: L R, LFE
Sampling rate : 48.0 kHz
Frame rate : 31.250 FPS (1536 spf)
Bit depth : 16 bits
Compression mode : Lossy
Stream size : 420 MiB (11%)
Title : Chinese 5.1
Language : Chinese
Service kind : Complete Main
Default : No
Forced : No

Text
ID : 4
Format : PGS
Codec ID : S_HDMV/PGS
Codec ID/Info : Picture based subtitle format used on BDs/HD-DVDs
Title : English
Language : English
Default : No
Forced : No



หมายเหตุ ทุกเว็บโหลดแทนกันได้ แต่ต้องเปลี่ยนชื่อให้เรียงกันด้วย

สำหรับสมาชิก VIP เท่านั้น!

[restrict …]

|——————————————————————|

|——————————————————————|

[/restrict]

(Visited 1,674 times, 1 visits today)