Home > Mini-HD > [MINI-HD 1080P] Warsaw 1944 /Miasto 44 (2014) วอร์ซอ 1944 หลั่งเลือดพิทักษ์แผ่นดิน [Soundtrack บรรยายไทย] [MKV] [ONE2UP]

[MINI-HD 1080P] Warsaw 1944 /Miasto 44 (2014) วอร์ซอ 1944 หลั่งเลือดพิทักษ์แผ่นดิน [Soundtrack บรรยายไทย] [MKV] [ONE2UP]

[MINI-HD 1080P] Warsaw 1944 /Miasto 44 (2014) วอร์ซอ 1944 หลั่งเลือดพิทักษ์แผ่นดิน

Warsaw.1944.2014.1080p.BluRay.AC3.SUBThai.x264[Load2up.com].mkv
Format : Matroska
Format version : Version 4 / Version 2
File size : 2.94 GiB
Duration : 2 h 6 min
Overall bit rate : 3 319 kb/s
Movie name : Warsaw.1944.(2014).1080p.BluRay.AC3.SUBThai.x264
Encoded date : UTC 2017-12-28 02:30:05
Writing application : mkvmerge v18.0.0 (‘Apricity’) 64-bit
Writing library : libebml v1.3.5 + libmatroska v1.4.8

Video
ID : 1
Format : AVC
Format/Info : Advanced Video Codec
Format profile : [email protected]
Format settings, CABAC : Yes
Format settings, ReFrames : 4 frames
Codec ID : V_MPEG4/ISO/AVC
Duration : 2 h 6 min
Bit rate : 2 632 kb/s
Width : 1 920 pixels
Height : 808 pixels
Display aspect ratio : 2.40:1
Frame rate mode : Constant
Frame rate : 24.000 FPS
Color space : YUV
Chroma subsampling : 4:2:0
Bit depth : 8 bits
Scan type : Progressive
Bits/(Pixel*Frame) : 0.071
Stream size : 2.33 GiB (79%)
Title : Warsaw.1944.(2014).1080p.BluRay.AC3.SUBThai.x264
Writing library : x264 core 142 r2431 ac76440
Default : Yes
Forced : No

Audio
ID : 2
Format : AC-3
Format/Info : Audio Coding 3
Format settings, Endianness : Big
Codec ID : A_AC3
Duration : 2 h 6 min
Bit rate mode : Constant
Bit rate : 640 kb/s
Channel(s) : 6 channels
Channel positions : Front: L C R, Side: L R, LFE
Sampling rate : 48.0 kHz
Frame rate : 31.250 FPS (1536 spf)
Bit depth : 16 bits
Compression mode : Lossy
Stream size : 580 MiB (19%)
Title : AC3 5.1 640kbps
Language : Polish
Service kind : Complete Main
Default : Yes
Forced : No

Text #1
ID : 3
Format : VobSub
Muxing mode : zlib
Codec ID : S_VOBSUB
Codec ID/Info : Picture based subtitle format used on DVDs
Duration : 1 h 57 min
Bit rate : 1 698 b/s
Count of elements : 935
Stream size : 1.43 MiB (0%)
Title : Vobsub 480p
Language : Thai
Default : No
Forced : No

Text #2
ID : 4
Format : VobSub
Muxing mode : zlib
Codec ID : S_VOBSUB
Codec ID/Info : Picture based subtitle format used on DVDs
Duration : 1 h 57 min
Bit rate : 5 528 b/s
Count of elements : 935
Stream size : 4.65 MiB (0%)
Title : Vobsub 1080p low
Language : Thai
Default : No
Forced : No

Text #3
ID : 5
Format : VobSub
Muxing mode : zlib
Codec ID : S_VOBSUB
Codec ID/Info : Picture based subtitle format used on DVDs
Duration : 1 h 57 min
Bit rate : 5 894 b/s
Count of elements : 935
Stream size : 4.95 MiB (0%)
Title : Vobsub 1080p low bold
Language : Thai
Default : No
Forced : No

Text #4
ID : 6
Format : VobSub
Muxing mode : zlib
Codec ID : S_VOBSUB
Codec ID/Info : Picture based subtitle format used on DVDs
Duration : 1 h 57 min
Bit rate : 5 877 b/s
Count of elements : 935
Stream size : 4.94 MiB (0%)
Title : Vobsub 1080p bold yellow
Language : Thai
Default : No
Forced : No

Text #5
ID : 7
Format : PGS
Muxing mode : zlib
Codec ID : S_HDMV/PGS
Codec ID/Info : Picture based subtitle format used on BDs/HD-DVDs
Duration : 1 h 57 min
Bit rate : 26.1 kb/s
Count of elements : 1870
Stream size : 21.9 MiB (1%)
Title : PGS low
Language : Thai
Default : No
Forced : No

Text #6
ID : 8
Format : PGS
Muxing mode : zlib
Codec ID : S_HDMV/PGS
Codec ID/Info : Picture based subtitle format used on BDs/HD-DVDs
Duration : 1 h 57 min
Bit rate : 26.0 kb/s
Count of elements : 1870
Stream size : 21.8 MiB (1%)
Title : PGS low bold
Language : Thai
Default : No
Forced : No

Text #7
ID : 9
Format : PGS
Muxing mode : zlib
Codec ID : S_HDMV/PGS
Codec ID/Info : Picture based subtitle format used on BDs/HD-DVDs
Duration : 1 h 57 min
Bit rate : 26.0 kb/s
Count of elements : 1870
Stream size : 21.8 MiB (1%)
Title : PGS bold yellow
Language : Thai
Default : No
Forced : No

Text #8
ID : 10
Format : UTF-8
Codec ID : S_TEXT/UTF8
Codec ID/Info : UTF-8 Plain Text
Duration : 1 h 52 min
Bit rate : 34 b/s
Count of elements : 933
Stream size : 28.5 KiB (0%)
Title : Subrip
Language : English
Default : No
Forced : No



หมายเหตุ ทุกเว็บโหลดแทนกันได้ แต่ต้องเปลี่ยนชื่อให้เรียงกันด้วย

สำหรับสมาชิก VIP เท่านั้น!

[restrict …]

|——————————————————————|

|——————————————————————|

[/restrict]