Home > Mini-HD > [MINI-HD 1080P] War for the Planet of the Apes (2017) มหาสงครามพิภพวานร [พากย์ไทยโรง + อังกฤษ] [ซับอังกฤษ] [MKV] [ONE2UP]

[MINI-HD 1080P] War for the Planet of the Apes (2017) มหาสงครามพิภพวานร [พากย์ไทยโรง + อังกฤษ] [ซับอังกฤษ] [MKV] [ONE2UP]

[MINI-HD 1080P] War for the Planet of the Apes (2017) มหาสงครามพิภพวานร

War for the Planet of the Apes ผลงานตอนที่ 3 ของแฟรนไชส์เรื่องดัง ซีซาร์และฝูงวานรต้องพบกับปัญหาใหญ่ที่เกิดขึ้นกับกลุ่มมนุษย์ที่นำโดยผู้พันผู้โหดเหี้ยม หลังจากที่ฝูงวานรต้องพบกับความสูญเสียที่เจ็บปวดอย่างคาดไม่ถึง ซีซาร์ต้องต่อสู้กับสัญชาตญาณที่โหดร้ายมากขึ้น และเริ่มต้นการเดินทางแห่งตำนานเพื่อล้างแค้นเผ่าพันธุ์ของเขา เมื่อท้ายที่สุดการเดินทางได้พาพวกเขามาเผชิญหน้ากัน ซีซาร์และผู้พันต้องเผชิญหน้ากัน ในการต่อสู้ครั้งใหญ่ที่จะกำหนดชะตากรรมสายพันธุ์ของพวกเขาและอนาคตของโลก

War.for.the.Planet.of.the.Apes.2017.1080p.KORSUB.HDRip.x264.AAC2.0-THR. AC3[Load2up.com].mkv
Format : Matroska
Format version : Version 4 / Version 2
File size : 4.93 GiB
Duration : 2 h 18 min
Overall bit rate : 5 079 kb/s
Movie name : War.for.the.Planet.of.the.Apes.2017.1080p.KORSUB.HDRip.x264.AAC2.0
Encoded date : UTC 2017-10-02 07:07:19
Writing application : mkvmerge v16.0.0 (‘Protest’) 32-bit
Writing library : libebml v1.3.5 + libmatroska v1.4.8
Cover : Yes
Attachments : cover_land.jpg / small_cover.jpg / small_cover_land.jpg / cover.jpg

Video
ID : 1
Format : AVC
Format/Info : Advanced Video Codec
Format profile : [email protected]
Format settings, CABAC : Yes
Format settings, ReFrames : 4 frames
Codec ID : V_MPEG4/ISO/AVC
Duration : 2 h 18 min
Bit rate : 4 661 kb/s
Width : 1 920 pixels
Height : 1 080 pixels
Display aspect ratio : 16:9
Frame rate mode : Constant
Frame rate : 30.000 FPS
Color space : YUV
Chroma subsampling : 4:2:0
Bit depth : 8 bits
Scan type : Progressive
Bits/(Pixel*Frame) : 0.075
Stream size : 4.52 GiB (92%)
Title : War.for.the.Planet.of.the.Apes.2017.1080p.KORSUB.HDRip.x264.AAC2.0
Writing library : x264 core 130 r2273 b3065e6
Language : English
Default : Yes
Forced : No
Color range : Limited
Color primaries : BT.709
Transfer characteristics : BT.709
Matrix coefficients : BT.709

Audio #1
ID : 2
Format : AC-3
Format/Info : Audio Coding 3
Format settings, Endianness : Big
Codec ID : A_AC3
Duration : 2 h 18 min
Bit rate mode : Constant
Bit rate : 192 kb/s
Channel(s) : 2 channels
Channel positions : Front: L R
Sampling rate : 48.0 kHz
Frame rate : 31.250 FPS (1536 spf)
Bit depth : 16 bits
Compression mode : Lossy
Stream size : 191 MiB (4%)
Title : THR_Wwwo
Language : Thai
Service kind : Complete Main
Default : No
Forced : No

Audio #2
ID : 3
Format : AAC
Format/Info : Advanced Audio Codec
Format profile : LC
Codec ID : A_AAC
Duration : 2 h 18 min
Bit rate : 224 kb/s
Channel(s) : 2 channels
Channel positions : Front: L R
Sampling rate : 48.0 kHz
Frame rate : 46.875 FPS (1024 spf)
Compression mode : Lossy
Delay relative to video : 19 ms
Stream size : 222 MiB (4%)
Title : War.for.the.Planet.of.the.Apes.2017.1080p.KORSUB.HDRip.x264.AAC2.0
Language : English
Default : Yes
Forced : No

Text
ID : 4
Format : UTF-8
Codec ID : S_TEXT/UTF8
Codec ID/Info : UTF-8 Plain Text
Duration : 2 h 10 min
Bit rate : 16 b/s
Count of elements : 628
Stream size : 16.2 KiB (0%)
Language : English
Default : Yes
Forced : No



หมายเหตุ ทุกเว็บโหลดแทนกันได้ แต่ต้องเปลี่ยนชื่อให้เรียงกันด้วย

สำหรับสมาชิก VIP เท่านั้น!

[restrict …]

|——————————————————————|

|——————————————————————|

[/restrict]

%d bloggers like this: