Home > Mini-HD > [MINI-HD 1080P] Walk. Ride. Rodeo. (2019) ก้าวต่อไป หัวใจขอฮึดสู้ [Soundtrack บรรยายไทย] [MKV]

[MINI-HD 1080P] Walk. Ride. Rodeo. (2019) ก้าวต่อไป หัวใจขอฮึดสู้ [Soundtrack บรรยายไทย] [MKV]

[MINI-HD 1080P] Walk. Ride. Rodeo. (2019) ก้าวต่อไป หัวใจขอฮึดสู้

Walk. Ride. Rodeo. (2019)[Load2up.com].mkv
Format : Matroska
Format version : Version 4
File size : 3.49 GiB
Duration : 1 h 39 min
Overall bit rate : 5 022 kb/s
Encoded date : UTC 2019-03-08 18:18:19
Writing application : mkvmerge v31.0.0 (‘Dolores In A Shoestand’) 64-bit
Writing library : libebml v1.3.6 + libmatroska v1.4.9

Video
ID : 1
Format : AVC
Format/Info : Advanced Video Codec
Format profile : [email protected]
Format settings : CABAC / 3 Ref Frames
Format settings, CABAC : Yes
Format settings, ReFrames : 3 frames
Codec ID : V_MPEG4/ISO/AVC
Duration : 1 h 39 min
Bit rate : 4 617 kb/s
Width : 1 920 pixels
Height : 1 080 pixels
Display aspect ratio : 16:9
Frame rate mode : Constant
Frame rate : 24.000 FPS
Color space : YUV
Chroma subsampling : 4:2:0
Bit depth : 8 bits
Scan type : Progressive
Bits/(Pixel*Frame) : 0.093
Stream size : 3.21 GiB (92%)
Default : Yes
Forced : No

Audio
ID : 2
Format : AC-3
Format/Info : Audio Coding 3
Commercial name : Dolby Digital
Codec ID : A_AC3
Duration : 1 h 39 min
Bit rate mode : Constant
Bit rate : 384 kb/s
Channel(s) : 6 channels
Channel layout : L R C LFE Ls Rs
Sampling rate : 48.0 kHz
Frame rate : 31.250 FPS (1536 SPF)
Bit depth : 16 bits
Compression mode : Lossy
Stream size : 273 MiB (8%)
Language : English
Service kind : Complete Main
Default : Yes
Forced : No

Text
ID : 3
Format : PGS
Muxing mode : zlib
Codec ID : S_HDMV/PGS
Codec ID/Info : Picture based subtitle format used on BDs/HD-DVDs
Duration : 1 h 39 min
Bit rate : 26.5 kb/s
Count of elements : 2762
Stream size : 18.8 MiB (1%)
Language : Thai
Default : Yes
Forced : No



หมายเหตุ ทุกเว็บโหลดแทนกันได้ แต่ต้องเปลี่ยนชื่อให้เรียงกันด้วย

สำหรับสมาชิก VIP เท่านั้น!

[restrict …]

|——————————————————————|

|——————————————————————|

[/restrict]