Home > Mini-HD > [MINI-HD 1080P] Transformers: The Last Knight (2017) ทรานส์ฟอร์เมอร์ส 5 อัศวินรุ่นสุดท้าย [พากย์ไทยโรง + อังกฤษ] [MKV] [ONE2UP] [Filefenix]

[MINI-HD 1080P] Transformers: The Last Knight (2017) ทรานส์ฟอร์เมอร์ส 5 อัศวินรุ่นสุดท้าย [พากย์ไทยโรง + อังกฤษ] [MKV] [ONE2UP] [Filefenix]

[MINI-HD 1080P] Transformers: The Last Knight (2017) ทรานส์ฟอร์เมอร์ส 5 อัศวินรุ่นสุดท้าย

Transformers: The Last Knight อัศวินรุ่นสุดท้าย แตกเรื่องจากแก่นเรื่องหลักของแฟรนไชส์ทรานฟอร์เมอร์ส และให้คำจำกัดความวีรบุรุษใหม่ มนุษย์และทรานส์ฟอร์เมอร์ส์อยู่ในสงคราม ออพติมัสจากไป การปกป้องอนาคตของพวกเราขึ้นอยู่กับความลับในอดีต ที่ซ่อนอยู่ในประวัติศาสตร์ทรานส์ฟอร์เมอร์สบนโลกใบนี้ การพิทักษ์โลกของเราตกอยู่ในกำมือของพันธมิตรอย่าง เคด เยเกอร์ (มาร์ค วอห์ลเบิร์ก) บัมเบิ้ลบี และขุนนางอังกฤษ (เซอร์ แอนโธนี ฮ็อปกินส์) และ ศาสตราจารย์จากอ็อกซ์ฟอร์ด (ลอร่า แฮดด็อก)

ในชีวิตของทุกคนมีช่วงเวลาที่เราต้องการทำอะไรที่แตกต่างให้เกิดความเปลี่ยนแปลง ในทรานส์ฟอร์เมอร์ส 5: อัศวินรุ่นสุดท้าย ผู้ถูกล่ากลายมาเป็นวีรบุรุษ วีรบุรุษกลายเป็นศํตรู มีเพียงโลกเดียวที่จะอยู่รอด: โลกของพวกเขา หรือโลกของเรา

Transformers.The.Last.Knight.2017.1080p.HC.KORSUB.HDRIP.X264.ThaiRong2.0[Load2up.com].mkv
Format : Matroska
Format version : Version 4 / Version 2
File size : 6.28 GiB
Duration : 2 h 27 min
Overall bit rate mode : Variable
Overall bit rate : 6 104 kb/s
Movie name : Transformers.The.Last.Knight.2017.1080p.HC.KORSUB.HDRIP.X264.ThaiRong2.0
Encoded date : UTC 2017-09-08 13:26:52
Writing application : mkvmerge v9.9.0 (‘Pick Up’) 64bit
Writing library : libebml v1.3.4 + libmatroska v1.4.5

Video
ID : 1
Format : AVC
Format/Info : Advanced Video Codec
Format profile : [email protected]
Format settings, CABAC : Yes
Format settings, ReFrames : 3 frames
Codec ID : V_MPEG4/ISO/AVC
Duration : 2 h 27 min
Bit rate mode : Variable
Bit rate : 5 653 kb/s
Maximum bit rate : 14.0 Mb/s
Width : 1 920 pixels
Height : 976 pixels
Display aspect ratio : 1.967
Frame rate mode : Constant
Frame rate : 24.000 FPS
Color space : YUV
Chroma subsampling : 4:2:0
Bit depth : 8 bits
Scan type : Progressive
Bits/(Pixel*Frame) : 0.126
Stream size : 5.82 GiB (93%)
Title : Transformers.The.Last.Knight.2017.1080p.HC.KORSUB.HDRIP.X264.ThaiRong2.0
Writing library : x264 core 148 r2744 b97ae06
Language : Thai
Default : Yes
Forced : No
Color range : Full
Color primaries : BT.709
Transfer characteristics : BT.709
Matrix coefficients : BT.709

Audio #1
ID : 2
Format : AC-3
Format/Info : Audio Coding 3
Format settings, Endianness : Big
Codec ID : A_AC3
Duration : 2 h 27 min
Bit rate mode : Constant
Bit rate : 192 kb/s
Channel(s) : 2 channels
Channel positions : Front: L R
Sampling rate : 48.0 kHz
Frame rate : 31.250 FPS (1536 spf)
Bit depth : 16 bits
Compression mode : Lossy
Stream size : 202 MiB (3%)
Title : AC-3 ThaiRong 2.0
Language : Thai
Service kind : Complete Main
Default : Yes
Forced : No

Audio #2
ID : 3
Format : AC-3
Format/Info : Audio Coding 3
Format settings, Endianness : Big
Codec ID : A_AC3
Duration : 2 h 27 min
Bit rate mode : Constant
Bit rate : 256 kb/s
Channel(s) : 2 channels
Channel positions : Front: L R
Sampling rate : 44.1 kHz
Frame rate : 28.711 FPS (1536 spf)
Bit depth : 16 bits
Compression mode : Lossy
Stream size : 270 MiB (4%)
Title : AC-3 English 2.0
Language : English
Service kind : Complete Main
Default : No
Forced : No



หมายเหตุ ทุกเว็บโหลดแทนกันได้ แต่ต้องเปลี่ยนชื่อให้เรียงกันด้วย

สำหรับสมาชิก VIP เท่านั้น!

[restrict …]

|——————————————————————|

|——————————————————————|

[/restrict]

%d bloggers like this: