[MINI-HD 1080P]Mojin: The Worm Valley (2018) โมจิน หุบเขาหนอน [Sound:Chi AC3 5.1/Thai AC3 2.0:Master] [SUB:Eng.PGS] [MKV]

Mojin: The Worm Valley (2018) โมจิน หุบเขาหนอน

Mojin.The.Worm.Valley.2018.CHINESE.1080p.BluRay.H264[Load2up.com].mkv
Format : Matroska
Format version : Version 4
File size : 3.77 GiB
Duration : 1 h 50 min
Overall bit rate : 4 894 kb/s
Movie name : Mojin.The.Worm.Valley.2018.CHINESE.1080p.BluRay.H264
Encoded date : UTC 2020-01-20 17:36:56
Writing application : mkvmerge v42.0.0 (‘Overtime’) 64-bit
Writing library : libebml v1.3.10 + libmatroska v1.5.2
Cover : Yes
Attachments : cover.jpg

Video
ID : 1
Format : AVC
Format/Info : Advanced Video Codec
Format profile : [email protected]
Format settings : CABAC / 1 Ref Frames
Format settings, CABAC : Yes
Format settings, ReFrames : 1 frame
Format settings, GOP : M=1, N=25
Codec ID : V_MPEG4/ISO/AVC
Duration : 1 h 50 min
Bit rate mode : Constant
Bit rate : 3 800 kb/s
Width : 1 920 pixels
Height : 818 pixels
Display aspect ratio : 2.35:1
Frame rate mode : Constant
Frame rate : 29.970 (30000/1001) FPS
Color space : YUV
Chroma subsampling : 4:2:0
Bit depth : 8 bits
Scan type : Progressive
Bits/(Pixel*Frame) : 0.081
Stream size : 2.92 GiB (78%)
Title : Mojin.The.Worm.Valley.2018.CHINESE.1080p.BluRay.H264
Language : Chinese
Default : Yes
Forced : No

Audio #1
ID : 2
Format : AC-3
Format/Info : Audio Coding 3
Commercial name : Dolby Digital
Codec ID : A_AC3
Duration : 1 h 50 min
Bit rate mode : Constant
Bit rate : 448 kb/s
Channel(s) : 2 channels
Channel layout : L R
Sampling rate : 44.1 kHz
Frame rate : 28.711 FPS (1536 SPF)
Bit depth : 16 bits
Compression mode : Lossy
Stream size : 353 MiB (9%)
Title : 2.0 AAC TH 448k 353m
Language : Thai
Service kind : Complete Main
Default : Yes
Forced : No

Audio #2
ID : 3
Format : AC-3
Format/Info : Audio Coding 3
Commercial name : Dolby Digital
Codec ID : A_AC3
Duration : 1 h 50 min
Bit rate mode : Constant
Bit rate : 640 kb/s
Channel(s) : 6 channels
Channel layout : L R C LFE Ls Rs
Sampling rate : 44.1 kHz
Frame rate : 28.711 FPS (1536 SPF)
Bit depth : 16 bits
Compression mode : Lossy
Stream size : 505 MiB (13%)
Title : 5.1 AC3 Chi 640k 504m
Language : Chinese
Service kind : Complete Main
Default : No
Forced : No

Text
ID : 4
Format : PGS
Muxing mode : zlib
Codec ID : S_HDMV/PGS
Codec ID/Info : Picture based subtitle format used on BDs/HD-DVDs
Duration : 1 h 41 min
Bit rate : 12.7 kb/s
Count of elements : 1740
Stream size : 9.20 MiB (0%)
Title : En.Pgs.white.85-60-10
Language : English
Default : Yes
Forced : No



หมายเหตุ ทุกเว็บโหลดแทนกันได้ แต่ต้องเปลี่ยนชื่อให้เรียงกันด้วย


สำหรับสมาชิก VIP เท่านั้น!

[restrict …]

|——————————————————————|

|——————————————————————|

[/restrict]

%d bloggers like this: