Home > Mini-HD > [MINI-HD 1080P] The Way Back (2020) เส้นทางเกียรติยศ [เสียงอังกฤษ DTS] [บรรยายไทย-อังกฤษ Master + ซับ PGS คมชัด] [MKV]

[MINI-HD 1080P] The Way Back (2020) เส้นทางเกียรติยศ [เสียงอังกฤษ DTS] [บรรยายไทย-อังกฤษ Master + ซับ PGS คมชัด] [MKV]

The Way Back (2020) เส้นทางเกียรติยศ

{MINI Super-HQ}_The.Way.Back_(2020)_1080p.BrRip.DTS.x264.TH.Load2up.com.mkv
Format : Matroska
Format version : Version 4
File size : 3.60 GiB
Duration : 1 h 48 min
Overall bit rate : 4 747 kb/s
Movie name : {MINI Super-HQ}_The.Way.Back_(2020)_1080p.BrRip.DTS.x264
Encoded date : UTC 2020-06-13 18:50:18
Writing application : mkvmerge v9.8.0 (‘Kuglblids’) 64bit
Writing library : libebml v1.3.4 + libmatroska v1.4.5

Video
ID : 1
Format : AVC
Format/Info : Advanced Video Codec
Format profile : [email protected]
Format settings : CABAC / 4 Ref Frames
Format settings, CABAC : Yes
Format settings, ReFrames : 4 frames
Codec ID : V_MPEG4/ISO/AVC
Duration : 1 h 48 min
Bit rate : 3 750 kb/s
Width : 1 920 pixels
Height : 804 pixels
Display aspect ratio : 2.40:1
Frame rate mode : Constant
Frame rate : 23.976 (24000/1001) FPS
Color space : YUV
Chroma subsampling : 4:2:0
Bit depth : 8 bits
Scan type : Progressive
Bits/(Pixel*Frame) : 0.101
Stream size : 2.84 GiB (79%)
Title : {MINI Super-HQ}_The.Way.Back_(2020)_1080p.BrRip.DTS.x264
Writing library : x264 core 146 r2538 121396c
Language : English
Default : Yes
Forced : Yes

Audio
ID : 2
Format : DTS
Format/Info : Digital Theater Systems
Codec ID : A_DTS
Duration : 1 h 48 min
Bit rate mode : Constant
Bit rate : 755 kb/s
Channel(s) : 6 channels
Channel layout : C L R Ls Rs LFE
Sampling rate : 48.0 kHz
Frame rate : 93.750 FPS (512 SPF)
Bit depth : 24 bits
Compression mode : Lossy
Stream size : 585 MiB (16%)
Title : English DTS
Language : English
Default : Yes
Forced : Yes

Text #1
ID : 3
Format : VobSub
Codec ID : S_VOBSUB
Codec ID/Info : Picture based subtitle format used on DVDs
Duration : 33 s 314 ms
Bit rate : 2 967 b/s
Count of elements : 1
Stream size : 12.1 KiB (0%)
Title : Thai
Language : Thai
Default : Yes
Forced : Yes

Text #2
ID : 4
Format : VobSub
Codec ID : S_VOBSUB
Codec ID/Info : Picture based subtitle format used on DVDs
Duration : 1 h 45 min
Bit rate : 5 686 b/s
Count of elements : 1555
Stream size : 4.28 MiB (0%)
Title : Thai 720p
Language : Thai
Default : No
Forced : No

Text #3
ID : 5
Format : VobSub
Codec ID : S_VOBSUB
Codec ID/Info : Picture based subtitle format used on DVDs
Duration : 1 h 45 min
Bit rate : 9 518 b/s
Count of elements : 1555
Stream size : 7.17 MiB (0%)
Title : Thai 1080p
Language : Thai
Default : No
Forced : No

Text #4
ID : 6
Format : VobSub
Codec ID : S_VOBSUB
Codec ID/Info : Picture based subtitle format used on DVDs
Duration : 1 h 45 min
Bit rate : 9 517 b/s
Count of elements : 1555
Stream size : 7.17 MiB (0%)
Title : Thai 1080p Yellow
Language : Thai
Default : No
Forced : No

Text #5
ID : 7
Format : VobSub
Codec ID : S_VOBSUB
Codec ID/Info : Picture based subtitle format used on DVDs
Duration : 1 h 45 min
Bit rate : 13.8 kb/s
Count of elements : 1555
Stream size : 10.4 MiB (0%)
Title : Thai 1080p Big
Language : Thai
Default : No
Forced : No

Text #6
ID : 8
Format : VobSub
Codec ID : S_VOBSUB
Codec ID/Info : Picture based subtitle format used on DVDs
Duration : 1 h 45 min
Bit rate : 9 518 b/s
Count of elements : 1555
Stream size : 7.17 MiB (0%)
Title : Thai 1080p Out
Language : Thai
Default : No
Forced : No

Text #7
ID : 9
Format : PGS
Codec ID : S_HDMV/PGS
Codec ID/Info : Picture based subtitle format used on BDs/HD-DVDs
Duration : 1 h 45 min
Bit rate : 37.9 kb/s
Count of elements : 3112
Stream size : 28.5 MiB (1%)
Title : Thai PGS BluRay Master
Language : Thai
Default : No
Forced : No

Text #8
ID : 10
Format : PGS
Codec ID : S_HDMV/PGS
Codec ID/Info : Picture based subtitle format used on BDs/HD-DVDs
Duration : 1 h 45 min
Bit rate : 29.8 kb/s
Count of elements : 3110
Stream size : 22.4 MiB (1%)
Title : Thai 1080p Yellow PGS
Language : Thai
Default : No
Forced : No

Text #9
ID : 11
Format : PGS
Codec ID : S_HDMV/PGS
Codec ID/Info : Picture based subtitle format used on BDs/HD-DVDs
Duration : 1 h 45 min
Bit rate : 58.6 kb/s
Count of elements : 3110
Stream size : 44.1 MiB (1%)
Title : Thai 1080p Big PGS
Language : Thai
Default : No
Forced : No

Text #10
ID : 12
Format : PGS
Codec ID : S_HDMV/PGS
Codec ID/Info : Picture based subtitle format used on BDs/HD-DVDs
Duration : 1 h 45 min
Bit rate : 29.8 kb/s
Count of elements : 3110
Stream size : 22.4 MiB (1%)
Title : Thai 1080p Out PGS
Language : Thai
Default : No
Forced : No

Text #11
ID : 13
Format : PGS
Codec ID : S_HDMV/PGS
Codec ID/Info : Picture based subtitle format used on BDs/HD-DVDs
Duration : 1 h 40 min
Bit rate : 48.5 kb/s
Count of elements : 3422
Stream size : 34.8 MiB (1%)
Title : English PGS BluRay Master
Language : English
Default : No
Forced : No



หมายเหตุ ทุกเว็บโหลดแทนกันได้ แต่ต้องเปลี่ยนชื่อให้เรียงกันด้วย


สำหรับสมาชิก VIP เท่านั้น!

[restrict …]

|——————————————————————|

|——————————————————————|

[/restrict]

%d bloggers like this: