Home > Mini-HD > [MINI-HD 1080P] The Strangers: Prey at Night (2018) คนแปลกหน้า ขอฆ่าหน่อยสิ! [เสียงไทยโรง + เสียงอังกฤษ 5.1] [บรรยายอังกฤษ] [MKV] [ONE2UP]

[MINI-HD 1080P] The Strangers: Prey at Night (2018) คนแปลกหน้า ขอฆ่าหน่อยสิ! [เสียงไทยโรง + เสียงอังกฤษ 5.1] [บรรยายอังกฤษ] [MKV] [ONE2UP]

[MINI-HD 1080P] The Strangers: Prey at Night (2018) คนแปลกหน้า ขอฆ่าหน่อยสิ!

The.Strangers.Prey.at.Night.2018.1080p.WEB-DL.DD5.1.H264[Load2up.com].mkv
Format : Matroska
Format version : Version 4 / Version 2
File size : 3.06 GiB
Duration : 1 h 25 min
Overall bit rate : 5 111 kb/s
Movie name : The.Strangers.Prey.at.Night.2018.1080p.WEB-DL.DD5.1.H264-FGT
Encoded date : UTC 2018-05-27 09:46:38
Writing application : mkvmerge v23.0.0 (‘The Bride Said No’) 64-bit
Writing library : libebml v1.3.6 + libmatroska v1.4.9
Cover : Yes
Attachments : small_cover.jpg / small_cover_land.jpg / cover.jpg / cover_land.jpg

Video
ID : 1
Format : AVC
Format/Info : Advanced Video Codec
Format profile : [email protected]
Format settings, CABAC : Yes
Format settings, ReFrames : 5 frames
Codec ID : V_MPEG4/ISO/AVC
Duration : 1 h 25 min
Bit rate : 4 596 kb/s
Width : 1 916 pixels
Height : 800 pixels
Display aspect ratio : 2.40:1
Frame rate mode : Constant
Frame rate : 23.976 (23976/1000) FPS
Color space : YUV
Chroma subsampling : 4:2:0
Bit depth : 8 bits
Scan type : Progressive
Bits/(Pixel*Frame) : 0.125
Stream size : 2.75 GiB (90%)
Title : The.Strangers.Prey.at.Night.2018.1080p.WEB-DL.DD5.1.H264
Language : English
Default : Yes
Forced : No
Color range : Limited
Color primaries : BT.709
Transfer characteristics : BT.709
Matrix coefficients : BT.709

Audio #1
ID : 2
Format : AAC
Format/Info : Advanced Audio Codec
Format profile : LC
Codec ID : A_AAC
Duration : 1 h 25 min
Bit rate : 128 kb/s
Channel(s) : 2 channels
Channel positions : Front: L R
Sampling rate : 44.1 kHz
Frame rate : 43.066 FPS (1024 spf)
Compression mode : Lossy
Delay relative to video : -42 ms
Stream size : 78.4 MiB (3%)
Title : Thai Rong
Language : Thai
Default : Yes
Forced : No

Audio #2
ID : 3
Format : AC-3
Format/Info : Audio Coding 3
Format settings, Endianness : Big
Codec ID : A_AC3
Duration : 1 h 25 min
Bit rate mode : Constant
Bit rate : 384 kb/s
Channel(s) : 6 channels
Channel positions : Front: L C R, Side: L R, LFE
Sampling rate : 48.0 kHz
Frame rate : 31.250 FPS (1536 spf)
Bit depth : 16 bits
Compression mode : Lossy
Delay relative to video : -42 ms
Stream size : 235 MiB (8%)
Title : English
Language : English
Service kind : Complete Main
Default : No
Forced : No

Text
ID : 4
Format : UTF-8
Codec ID : S_TEXT/UTF8
Codec ID/Info : UTF-8 Plain Text
Duration : 1 h 17 min
Bit rate : 43 b/s
Count of elements : 919
Stream size : 24.6 KiB (0%)
Title : English
Language : English
Default : Yes
Forced : No



หมายเหตุ ทุกเว็บโหลดแทนกันได้ แต่ต้องเปลี่ยนชื่อให้เรียงกันด้วย

สำหรับสมาชิก VIP เท่านั้น!

[restrict …]

|——————————————————————|

|——————————————————————|

[/restrict]