Home > Mini-HD > [MINI-HD 1080P] THE SOUL-MATE (2018) คนกับผี คู่เเสบแบบว่าป่วง [Sound:Kor/Thai AC3 2.0:Master] [SubThai+Eng]

[MINI-HD 1080P] THE SOUL-MATE (2018) คนกับผี คู่เเสบแบบว่าป่วง [Sound:Kor/Thai AC3 2.0:Master] [SubThai+Eng]

THE SOUL-MATE (2018) คนกับผี คู่เเสบแบบว่าป่วง

THE.SOUL-MATE.2018.1080p.FHDRip[Load2up.com].mkv
Format : Matroska
Format version : Version 4
File size : 3.32 GiB
Duration : 1 h 36 min
Overall bit rate : 4 907 kb/s
Movie name : THE.SOUL-MATE.2018.1080p.FHDRip
Encoded date : UTC 2020-02-11 16:28:21
Writing application : mkvmerge v43.0.0 (‘The Quartermaster’) 64-bit
Writing library : libebml v1.3.10 + libmatroska v1.5.2
Cover : Yes
Attachments : cover.jpg

Video
ID : 1
Format : AVC
Format/Info : Advanced Video Codec
Format profile : [email protected]
Format settings : CABAC / 1 Ref Frames
Format settings, CABAC : Yes
Format settings, ReFrames : 1 frame
Format settings, GOP : M=1, N=25
Codec ID : V_MPEG4/ISO/AVC
Duration : 1 h 36 min
Bit rate mode : Constant
Bit rate : 4 000 kb/s
Width : 1 920 pixels
Height : 1 080 pixels
Display aspect ratio : 16:9
Frame rate mode : Constant
Frame rate : 29.970 (30000/1001) FPS
Color space : YUV
Chroma subsampling : 4:2:0
Bit depth : 8 bits
Scan type : Progressive
Bits/(Pixel*Frame) : 0.064
Stream size : 2.70 GiB (81%)
Title : THE.SOUL-MATE.2018.1080p.FHDRip
Language : Korean
Default : Yes
Forced : No

Audio #1
ID : 2
Format : AC-3
Format/Info : Audio Coding 3
Commercial name : Dolby Digital
Codec ID : A_AC3
Duration : 1 h 36 min
Bit rate mode : Constant
Bit rate : 256 kb/s
Channel(s) : 2 channels
Channel layout : L R
Sampling rate : 44.1 kHz
Frame rate : 28.711 FPS (1536 SPF)
Bit depth : 16 bits
Compression mode : Lossy
Stream size : 177 MiB (5%)
Title : 2.0 AC3 TH 256k 177m
Language : Thai
Service kind : Complete Main
Default : Yes
Forced : No

Audio #2
ID : 3
Format : AC-3
Format/Info : Audio Coding 3
Commercial name : Dolby Digital
Codec ID : A_AC3
Duration : 1 h 36 min
Bit rate mode : Constant
Bit rate : 640 kb/s
Channel(s) : 2 channels
Channel layout : L R
Sampling rate : 44.1 kHz
Frame rate : 28.711 FPS (1536 SPF)
Bit depth : 16 bits
Compression mode : Lossy
Stream size : 444 MiB (13%)
Title : 2.0 AC3 KOR 640k 443m
Language : Korean
Service kind : Complete Main
Default : No
Forced : No

Text
ID : 4
Format : PGS
Muxing mode : zlib
Codec ID : S_HDMV/PGS
Codec ID/Info : Picture based subtitle format used on BDs/HD-DVDs
Duration : 1 h 34 min
Bit rate : 18.5 kb/s
Count of elements : 2560
Stream size : 12.5 MiB (0%)
Title : EN.PGS.Yellow.85-60-22
Language : English
Default : Yes
Forced : No



หมายเหตุ ทุกเว็บโหลดแทนกันได้ แต่ต้องเปลี่ยนชื่อให้เรียงกันด้วย

สำหรับสมาชิก VIP เท่านั้น!

[restrict …]

|——————————————————————|

|——————————————————————|

[/restrict]

%d bloggers like this: