Home > Master > [MINI-HD 1080P] The Lodge (2019) เดอะลอดจ์ [เสียงอังกฤษ 5.1 + พากย์ไทย Master] [บรรยาย: ไทย + อังกฤษ] [เสียงไทย From True ID + ซับไทย PGS คมชัด!] [MASTER] [MKV]

[MINI-HD 1080P] The Lodge (2019) เดอะลอดจ์ [เสียงอังกฤษ 5.1 + พากย์ไทย Master] [บรรยาย: ไทย + อังกฤษ] [เสียงไทย From True ID + ซับไทย PGS คมชัด!] [MASTER] [MKV]

The Lodge (2019) เดอะลอดจ์

{MINI Super-HQ}_The Lodge.2019.1080p.BrRip.THI.x264.Load2up.com.mkv
Format : Matroska
Format version : Version 4
File size : 4.40 GiB
Duration : 1 h 48 min
Overall bit rate : 5 815 kb/s
Movie name : {MINI Super-HQ}_The Lodge.2019.1080p.BrRip.THI.x264
Encoded date : UTC 2020-05-24 04:46:17
Writing application : mkvmerge v40.0.0 (‘Old Town Road + Pony’) 64-bit
Writing library : libebml v1.3.9 + libmatroska v1.5.2

Video
ID : 1
Format : HEVC
Format/Info : High Efficiency Video Coding
Format profile : Main [email protected]@Main
Codec ID : V_MPEGH/ISO/HEVC
Duration : 1 h 48 min
Bit rate : 4 994 kb/s
Width : 1 920 pixels
Height : 1 040 pixels
Display aspect ratio : 1.85:1
Frame rate mode : Constant
Frame rate : 23.976 (24000/1001) FPS
Color space : YUV
Chroma subsampling : 4:2:0
Bit depth : 10 bits
Bits/(Pixel*Frame) : 0.104
Stream size : 3.78 GiB (86%)
Title : {MINI Super-HQ}_The Lodge.2019.1080p.BrRip.THI.x264
Writing library : x265 3.2+23-52135ffd9bcd:[Windows][GCC 9.2.0][64 bit] 10bit
Language : English
Default : Yes
Forced : No

Audio #1
ID : 2
Format : AC-3
Format/Info : Audio Coding 3
Commercial name : Dolby Digital
Codec ID : A_AC3
Duration : 1 h 48 min
Bit rate mode : Constant
Bit rate : 384 kb/s
Channel(s) : 2 channels
Channel layout : L R
Sampling rate : 48.0 kHz
Frame rate : 31.250 FPS (1536 SPF)
Bit depth : 16 bits
Compression mode : Lossy
Stream size : 297 MiB (7%)
Title : Thai From True ID @ 384 kb/s
Language : Thai
Service kind : Complete Main
Default : Yes
Forced : No

Audio #2
ID : 3
Format : AAC LC
Format/Info : Advanced Audio Codec Low Complexity
Codec ID : A_AAC-2
Duration : 1 h 48 min
Bit rate : 375 kb/s
Channel(s) : 6 channels
Channel layout : C L R Ls Rs LFE
Sampling rate : 48.0 kHz
Frame rate : 46.875 FPS (1024 SPF)
Compression mode : Lossy
Delay relative to video : 20 ms
Stream size : 291 MiB (6%)
Title : English 5.1 @ 375 kb/s
Language : English
Default : No
Forced : No

Text #1
ID : 4
Format : PGS
Codec ID : S_HDMV/PGS
Codec ID/Info : Picture based subtitle format used on BDs/HD-DVDs
Duration : 1 h 46 min
Bit rate : 14.4 kb/s
Count of elements : 1540
Stream size : 11.0 MiB (0%)
Title : Thai DilleniaUPC PGS
Language : Thai
Default : Yes
Forced : No

Text #2
ID : 5
Format : PGS
Codec ID : S_HDMV/PGS
Codec ID/Info : Picture based subtitle format used on BDs/HD-DVDs
Duration : 1 h 46 min
Bit rate : 13.4 kb/s
Count of elements : 1540
Stream size : 10.3 MiB (0%)
Title : Thai PGS
Language : Thai
Default : No
Forced : No

Text #3
ID : 6
Format : PGS
Codec ID : S_HDMV/PGS
Codec ID/Info : Picture based subtitle format used on BDs/HD-DVDs
Duration : 1 h 46 min
Bit rate : 13.4 kb/s
Count of elements : 1540
Stream size : 10.3 MiB (0%)
Title : Thai PGS Yellow
Language : Thai
Default : No
Forced : No

Text #4
ID : 7
Format : VobSub
Codec ID : S_VOBSUB
Codec ID/Info : Picture based subtitle format used on DVDs
Duration : 1 h 46 min
Bit rate : 3 939 b/s
Count of elements : 770
Stream size : 3.01 MiB (0%)
Title : Thai DilleniaUPC 1080p
Language : Thai
Default : No
Forced : No

Text #5
ID : 8
Format : VobSub
Codec ID : S_VOBSUB
Codec ID/Info : Picture based subtitle format used on DVDs
Duration : 1 h 46 min
Bit rate : 3 712 b/s
Count of elements : 770
Stream size : 2.84 MiB (0%)
Title : Thai 1080p Yellow
Language : Thai
Default : No
Forced : No

Text #6
ID : 9
Format : VobSub
Codec ID : S_VOBSUB
Codec ID/Info : Picture based subtitle format used on DVDs
Duration : 1 h 46 min
Bit rate : 3 708 b/s
Count of elements : 770
Stream size : 2.84 MiB (0%)
Title : Thai 1080p
Language : Thai
Default : No
Forced : No

Text #7
ID : 10
Format : VobSub
Codec ID : S_VOBSUB
Codec ID/Info : Picture based subtitle format used on DVDs
Duration : 1 h 46 min
Bit rate : 1 998 b/s
Count of elements : 770
Stream size : 1.53 MiB (0%)
Title : Thai 720p
Language : Thai
Default : No
Forced : No

Text #8
ID : 11
Format : VobSub
Codec ID : S_VOBSUB
Codec ID/Info : Picture based subtitle format used on DVDs
Duration : 1 h 46 min
Bit rate : 1 032 b/s
Count of elements : 770
Stream size : 809 KiB (0%)
Title : Thai 480p
Language : Thai
Default : No
Forced : No

Text #9
ID : 12
Format : VobSub
Codec ID : S_VOBSUB
Codec ID/Info : Picture based subtitle format used on DVDs
Duration : 1 h 48 min
Bit rate : 3 844 b/s
Count of elements : 1261
Stream size : 2.98 MiB (0%)
Title : English
Language : English
Default : No
Forced : No



หมายเหตุ ทุกเว็บโหลดแทนกันได้ แต่ต้องเปลี่ยนชื่อให้เรียงกันด้วย

สำหรับสมาชิก VIP เท่านั้น!

[restrict …]

|——————————————————————|

|——————————————————————|

[/restrict]

%d bloggers like this: