Home > Mini-HD > [MINI-HD 1080P] The House That Never Dies (2014) คฤหาสน์ผีสิงเลขที่ 81 กรุงปักกิ่ง [Soundtrack บรรยายไทย] [MKV]

[MINI-HD 1080P] The House That Never Dies (2014) คฤหาสน์ผีสิงเลขที่ 81 กรุงปักกิ่ง [Soundtrack บรรยายไทย] [MKV]

[MINI-HD 1080P] The House That Never Dies (2014) คฤหาสน์ผีสิงเลขที่ 81 กรุงปักกิ่ง

The House That Never Dies.2014[Load2up.com].mkv
Format : Matroska
Format version : Version 4 / Version 2
File size : 3.72 GiB
Duration : 1 h 29 min
Overall bit rate : 5 947 kb/s
Encoded date : UTC 2018-11-25 02:07:57
Writing application : mkvmerge v28.2.0 (‘The Awakening’) 64-bit
Writing library : libebml v1.3.6 + libmatroska v1.4.9

Video
ID : 1
Format : AVC
Format/Info : Advanced Video Codec
Format profile : [email protected]
Format settings, CABAC : Yes
Format settings, ReFrames : 3 frames
Codec ID : V_MPEG4/ISO/AVC
Duration : 1 h 29 min
Bit rate : 5 813 kb/s
Width : 1 920 pixels
Height : 1 080 pixels
Display aspect ratio : 16:9
Frame rate mode : Constant
Frame rate : 24.000 FPS
Color space : YUV
Chroma subsampling : 4:2:0
Bit depth : 8 bits
Scan type : Progressive
Bits/(Pixel*Frame) : 0.117
Stream size : 3.63 GiB (98%)
Language : Chinese
Default : Yes
Forced : No

Audio
ID : 2
Format : AAC
Format/Info : Advanced Audio Codec
Format profile : HE-AAC / LC
Codec ID : A_AAC
Duration : 1 h 29 min
Bit rate : 96.0 kb/s
Channel(s) : 2 channels
Channel positions : Front: L R
Sampling rate : 48.0 kHz / 24.0 kHz
Frame rate : 23.438 FPS (1024 spf)
Compression mode : Lossy
Delay relative to video : -41 ms
Stream size : 61.4 MiB (2%)
Language : Chinese
Default : Yes
Forced : No

Text #1
ID : 3
Format : PGS
Muxing mode : zlib
Codec ID : S_HDMV/PGS
Codec ID/Info : Picture based subtitle format used on BDs/HD-DVDs
Duration : 1 h 22 min
Bit rate : 37.7 kb/s
Count of elements : 2090
Stream size : 22.2 MiB (1%)
Title : Thai (PGS)
Language : Thai
Default : Yes
Forced : No

Text #2
ID : 4
Format : VobSub
Muxing mode : zlib
Codec ID : S_VOBSUB
Codec ID/Info : Picture based subtitle format used on DVDs
Duration : 1 h 22 min
Bit rate : 9 359 b/s
Count of elements : 1045
Stream size : 5.50 MiB (0%)
Title : Thai (VobSub)
Language : Thai
Default : No
Forced : No

Text #3
ID : 5
Format : UTF-8
Codec ID : S_TEXT/UTF8
Codec ID/Info : UTF-8 Plain Text
Duration : 1 h 22 min
Bit rate : 60 b/s
Count of elements : 1042
Stream size : 36.6 KiB (0%)
Title : Eng (SRT)
Language : English
Default : No
Forced : No

Text #4
ID : 6
Format : PGS
Muxing mode : zlib
Codec ID : S_HDMV/PGS
Codec ID/Info : Picture based subtitle format used on BDs/HD-DVDs
Duration : 1 h 22 min
Bit rate : 25.7 kb/s
Count of elements : 2020
Stream size : 15.1 MiB (0%)
Title : Chi (PGS)
Language : Chinese
Default : No
Forced : No

Text #5
ID : 7
Format : VobSub
Muxing mode : zlib
Codec ID : S_VOBSUB
Codec ID/Info : Picture based subtitle format used on DVDs
Duration : 1 h 22 min
Bit rate : 6 928 b/s
Count of elements : 1010
Stream size : 4.07 MiB (0%)
Title : Chi (VobSub)
Language : Chinese
Default : No
Forced : No



หมายเหตุ ทุกเว็บโหลดแทนกันได้ แต่ต้องเปลี่ยนชื่อให้เรียงกันด้วย

สำหรับสมาชิก VIP เท่านั้น!

[restrict …]

|——————————————————————|

|——————————————————————|

[/restrict]