Home > Master > [MINI-HD 1080P] The Half of It (2020) รักครึ่งๆ กลางๆ [พากย์ไทย 5.1 + เสียงอังกฤษ DD+ 5.1] [บรรยายไทย + อังกฤษ] [ซับไทย From Netfilx PGS คมชัด!] [MKV]

[MINI-HD 1080P] The Half of It (2020) รักครึ่งๆ กลางๆ [พากย์ไทย 5.1 + เสียงอังกฤษ DD+ 5.1] [บรรยายไทย + อังกฤษ] [ซับไทย From Netfilx PGS คมชัด!] [MKV]

The Half of It (2020) รักครึ่งๆ กลางๆ

The.Half.of.It.2020.iNTERNAL.1080p.WEB.x264.Load2up.com.mkv
Format : Matroska
Format version : Version 4
File size : 3.91 GiB
Duration : 1 h 45 min
Overall bit rate mode : Variable
Overall bit rate : 5 318 kb/s
Movie name : The.Half.of.It.2020.iNTERNAL.1080p.WEB.x264
Encoded date : UTC 2020-05-01 20:24:09
Writing application : mkvmerge v40.0.0 (‘Old Town Road + Pony’) 64-bit
Writing library : libebml v1.3.9 + libmatroska v1.5.2

Video
ID : 1
Format : AVC
Format/Info : Advanced Video Codec
Format profile : [email protected]
Format settings : CABAC / 3 Ref Frames
Format settings, CABAC : Yes
Format settings, ReFrames : 3 frames
Codec ID : V_MPEG4/ISO/AVC
Duration : 1 h 45 min
Bit rate mode : Variable
Bit rate : 3 830 kb/s
Maximum bit rate : 5 745 kb/s
Width : 1 920 pixels
Height : 1 080 pixels
Display aspect ratio : 16:9
Frame rate mode : Constant
Frame rate : 24.000 FPS
Color space : YUV
Chroma subsampling : 4:2:0
Bit depth : 8 bits
Scan type : Progressive
Bits/(Pixel*Frame) : 0.077
Stream size : 2.78 GiB (71%)
Title : The.Half.of.It.2020.iNTERNAL.1080p.WEB.x264
Writing library : x264 core 148 r2717 0d2410d
Language : English
Default : Yes
Forced : No

Audio #1
ID : 2
Format : E-AC-3
Format/Info : Enhanced AC-3
Commercial name : Dolby Digital Plus
Codec ID : A_EAC3
Duration : 1 h 45 min
Bit rate mode : Constant
Bit rate : 640 kb/s
Channel(s) : 6 channels
Channel layout : L R C LFE Ls Rs
Sampling rate : 48.0 kHz
Frame rate : 31.250 FPS (1536 SPF)
Compression mode : Lossy
Stream size : 482 MiB (12%)
Title : Thai From Netfilx 5.1 @ 640 kb/s
Language : Thai
Service kind : Complete Main
Default : Yes
Forced : No

Audio #2
ID : 3
Format : E-AC-3 JOC
Format/Info : Enhanced AC-3 with Joint Object Coding
Commercial name : Dolby Digital Plus with Dolby Atmos
Codec ID : A_EAC3
Duration : 1 h 45 min
Bit rate mode : Constant
Bit rate : 768 kb/s
Channel(s) : 6 channels
Channel layout : L R C LFE Ls Rs
Sampling rate : 48.0 kHz
Frame rate : 31.250 FPS (1536 SPF)
Compression mode : Lossy
Stream size : 578 MiB (14%)
Title : English DD+ 5.1 Dolby Atmos @ 768 kb/s
Language : English
Service kind : Complete Main
Default : No
Forced : No
Complexity index : 16
Number of dynamic objects : 15
Bed channel count : 1 channel
Bed channel configuration : LFE

Text #1
ID : 4
Format : PGS
Codec ID : S_HDMV/PGS
Codec ID/Info : Picture based subtitle format used on BDs/HD-DVDs
Duration : 1 h 17 min
Bit rate : 518 b/s
Count of elements : 22
Stream size : 296 KiB (0%)
Title : Thai From Netfilx [Forced] Language : Thai
Default : Yes
Forced : No

Text #2
ID : 5
Format : PGS
Codec ID : S_HDMV/PGS
Codec ID/Info : Picture based subtitle format used on BDs/HD-DVDs
Duration : 1 h 43 min
Bit rate : 32.6 kb/s
Count of elements : 2582
Stream size : 24.2 MiB (1%)
Title : Thai From Netfilx PGS
Language : Thai
Default : No
Forced : No

Text #3
ID : 6
Format : PGS
Codec ID : S_HDMV/PGS
Codec ID/Info : Picture based subtitle format used on BDs/HD-DVDs
Duration : 1 h 43 min
Bit rate : 38.2 kb/s
Count of elements : 2582
Stream size : 28.3 MiB (1%)
Title : Thai PGS
Language : Thai
Default : No
Forced : No

Text #4
ID : 7
Format : PGS
Codec ID : S_HDMV/PGS
Codec ID/Info : Picture based subtitle format used on BDs/HD-DVDs
Duration : 1 h 43 min
Bit rate : 33.4 kb/s
Count of elements : 2582
Stream size : 24.8 MiB (1%)
Title : Thai PGS / Thai DilleniaUPC PGS
Language : Thai
Default : No
Forced : No

Text #5
ID : 8
Format : VobSub
Codec ID : S_VOBSUB
Codec ID/Info : Picture based subtitle format used on DVDs
Duration : 1 h 43 min
Bit rate : 8 604 b/s
Count of elements : 1291
Stream size : 6.37 MiB (0%)
Title : Thai 1080p
Language : Thai
Default : No
Forced : No

Text #6
ID : 9
Format : VobSub
Codec ID : S_VOBSUB
Codec ID/Info : Picture based subtitle format used on DVDs
Duration : 1 h 43 min
Bit rate : 4 610 b/s
Count of elements : 1291
Stream size : 3.42 MiB (0%)
Title : Thai 720p
Language : Thai
Default : No
Forced : No

Text #7
ID : 10
Format : VobSub
Codec ID : S_VOBSUB
Codec ID/Info : Picture based subtitle format used on DVDs
Duration : 1 h 43 min
Bit rate : 2 439 b/s
Count of elements : 1291
Stream size : 1.81 MiB (0%)
Title : Thai 480p
Language : Thai
Default : No
Forced : No

Text #8
ID : 11
Format : VobSub
Codec ID : S_VOBSUB
Codec ID/Info : Picture based subtitle format used on DVDs
Duration : 1 h 43 min
Bit rate : 7 930 b/s
Count of elements : 1291
Stream size : 5.88 MiB (0%)
Title : Thai DilleniaUPC 1080p
Language : Thai
Default : No
Forced : No

Text #9
ID : 12
Format : UTF-8
Codec ID : S_TEXT/UTF8
Codec ID/Info : UTF-8 Plain Text
Duration : 1 h 42 min
Bit rate : 62 b/s
Count of elements : 1533
Stream size : 47.0 KiB (0%)
Title : English
Language : English
Default : No
Forced : No

Text #10
ID : 13
Format : UTF-8
Codec ID : S_TEXT/UTF8
Codec ID/Info : UTF-8 Plain Text
Duration : 1 h 23 min
Bit rate : 1 b/s
Count of elements : 29
Stream size : 763 Bytes (0%)
Title : English [Forced] Language : English
Default : No
Forced : Yes



หมายเหตุ ทุกเว็บโหลดแทนกันได้ แต่ต้องเปลี่ยนชื่อให้เรียงกันด้วย


สำหรับสมาชิก VIP เท่านั้น!

[restrict …]

|——————————————————————|

|——————————————————————|

[/restrict]

%d bloggers like this: