Home > Mini-HD > [MINI-HD 1080P] The Equalizer 2 (2018) มัจจุราชไร้เงา 2 [ภาพมาสเตอร์] [พากย์ไทยโรงชัด + เสียงอังกฤษ] [MKV] [ONE2UP]

[MINI-HD 1080P] The Equalizer 2 (2018) มัจจุราชไร้เงา 2 [ภาพมาสเตอร์] [พากย์ไทยโรงชัด + เสียงอังกฤษ] [MKV] [ONE2UP]

[MINI-HD 1080P] The Equalizer 2 (2018) มัจจุราชไร้เงา 2

The Equalizer 2[Load2up.com].mkv
Format : Matroska
Format version : Version 4 / Version 2
File size : 4.31 GiB
Duration : 2 h 1 min
Overall bit rate : 5 095 kb/s
Movie name : The.Equalizer.2.2018.1080p.WEB-DL.DD5.1.H264
Encoded date : UTC 2018-10-31 02:03:56
Writing application : mkvmerge v26.0.0 (‘In The Game’) 32-bit
Writing library : libebml v1.3.6 + libmatroska v1.4.9
Cover : Yes
Attachments : small_cover.jpg / small_cover_land.jpg / cover.jpg / cover_land.jpg

Video
ID : 1
Format : AVC
Format/Info : Advanced Video Codec
Format profile : [email protected]
Format settings, CABAC : Yes
Format settings, ReFrames : 5 frames
Codec ID : V_MPEG4/ISO/AVC
Duration : 2 h 1 min
Bit rate : 4 518 kb/s
Width : 1 920 pixels
Height : 796 pixels
Display aspect ratio : 2.40:1
Frame rate mode : Constant
Frame rate : 23.976 FPS
Color space : YUV
Chroma subsampling : 4:2:0
Bit depth : 8 bits
Scan type : Progressive
Bits/(Pixel*Frame) : 0.123
Stream size : 3.82 GiB (89%)
Title : The.Equalizer.2.2018.1080p.WEB-DL.DD5.1.H264
Language : English
Default : Yes
Forced : No
Color range : Limited
Color primaries : BT.709
Transfer characteristics : BT.709
Matrix coefficients : BT.709

Audio #1
ID : 2
Format : AC-3
Format/Info : Audio Coding 3
Format settings, Endianness : Big
Codec ID : A_AC3
Duration : 2 h 0 min
Bit rate mode : Constant
Bit rate : 192 kb/s
Channel(s) : 2 channels
Channel positions : Front: L R
Sampling rate : 48.0 kHz
Frame rate : 31.250 FPS (1536 spf)
Bit depth : 16 bits
Compression mode : Lossy
Delay relative to video : -43 ms
Stream size : 166 MiB (4%)
Title : THR
Language : Thai
Service kind : Complete Main
Default : No
Forced : No

Audio #2
ID : 3
Format : AC-3
Format/Info : Audio Coding 3
Format settings, Endianness : Big
Codec ID : A_AC3
Duration : 2 h 0 min
Bit rate mode : Constant
Bit rate : 384 kb/s
Channel(s) : 6 channels
Channel positions : Front: L C R, Side: L R, LFE
Sampling rate : 48.0 kHz
Frame rate : 31.250 FPS (1536 spf)
Bit depth : 16 bits
Compression mode : Lossy
Delay relative to video : -43 ms
Stream size : 332 MiB (8%)
Title : The.Equalizer.2.2018.1080p.WEB-DL.DD5.1.H264
Language : English
Service kind : Complete Main
Default : Yes
Forced : No

Text #1
ID : 4
Format : UTF-8
Codec ID : S_TEXT/UTF8
Codec ID/Info : UTF-8 Plain Text
Duration : 41 min 15 s
Bit rate : 0 b/s
Count of elements : 11
Stream size : 192 Bytes (0%)
Title : FORCED
Language : English
Default : Yes
Forced : Yes

Text #2
ID : 5
Format : UTF-8
Codec ID : S_TEXT/UTF8
Codec ID/Info : UTF-8 Plain Text
Duration : 1 h 52 min
Bit rate : 38 b/s
Count of elements : 1032
Stream size : 31.4 KiB (0%)
Language : English
Default : No
Forced : No



หมายเหตุ ทุกเว็บโหลดแทนกันได้ แต่ต้องเปลี่ยนชื่อให้เรียงกันด้วย

สำหรับสมาชิก VIP เท่านั้น!

[restrict …]

|——————————————————————|

|——————————————————————|

[/restrict]