Home > Mini-HD > [MINI-HD 1080P] THE DARKEST DAWN (2016) อรุณรุ่งมฤตยู [Soundtrack บรรยายไทย] [MKV] [ONE2UP]

[MINI-HD 1080P] THE DARKEST DAWN (2016) อรุณรุ่งมฤตยู [Soundtrack บรรยายไทย] [MKV] [ONE2UP]

[MINI-HD 1080P] THE DARKEST DAWN (2016) อรุณรุ่งมฤตยู

The.Darkest.Dawn.2016.NF.WEBRip.1080p.x264 -th[load2up.com].mkv
Format : Matroska
Format version : Version 4 / Version 2
File size : 3.71 GiB
Duration : 1 h 16 min
Overall bit rate : 6 970 kb/s
Movie name : The Darkest Dawn (2016)
Encoded date : UTC 2018-05-21 15:44:12
Writing application : mkvmerge v21.0.0 (‘Tardigrades Will Inherit The Earth’) 64-bit
Writing library : libebml v1.3.5 + libmatroska v1.4.8
Cover : Yes
Attachments : Cover.jpg

Video
ID : 1
Format : AVC
Format/Info : Advanced Video Codec
Format profile : [email protected]
Format settings, CABAC : Yes
Format settings, ReFrames : 2 frames
Format settings, GOP : M=1, N=13
Codec ID : V_MPEG4/ISO/AVC
Duration : 1 h 15 min
Bit rate : 6 823 kb/s
Width : 1 920 pixels
Height : 1 080 pixels
Display aspect ratio : 16:9
Frame rate mode : Constant
Frame rate : 25.000 FPS
Color space : YUV
Chroma subsampling : 4:2:0
Bit depth : 8 bits
Scan type : Progressive
Bits/(Pixel*Frame) : 0.132
Stream size : 3.60 GiB (97%)
Title : 1080p
Default : Yes
Forced : No

Audio
ID : 2
Format : E-AC-3
Format/Info : Enhanced Audio Coding 3
Format settings, Endianness : Big
Codec ID : A_EAC3
Duration : 1 h 16 min
Bit rate mode : Constant
Bit rate : 192 kb/s
Channel(s) : 6 channels
Channel positions : Front: L C R, Side: L R, LFE
Sampling rate : 48.0 kHz
Frame rate : 187.500 FPS (256 spf)
Compression mode : Lossy
Delay relative to video : -40 ms
Stream size : 105 MiB (3%)
Title : English
Language : English
Service kind : Complete Main
Default : No
Forced : No

Text #1
ID : 3
Format : UTF-8
Codec ID : S_TEXT/UTF8
Codec ID/Info : UTF-8 Plain Text
Duration : 1 h 13 min
Bit rate : 59 b/s
Count of elements : 971
Stream size : 31.8 KiB (0%)
Title : English [CC] Language : English
Default : No
Forced : No

Text #2
ID : 4
Format : VobSub
Muxing mode : zlib
Codec ID : S_VOBSUB
Codec ID/Info : Picture based subtitle format used on DVDs
Duration : 1 h 14 min
Bit rate : 10.5 kb/s
Count of elements : 788
Stream size : 5.60 MiB (0%)
Language : Thai
Default : Yes
Forced : No

Text #3
ID : 5
Format : PGS
Muxing mode : zlib
Codec ID : S_HDMV/PGS
Codec ID/Info : Picture based subtitle format used on BDs/HD-DVDs
Duration : 1 h 14 min
Bit rate : 34.9 kb/s
Count of elements : 1576
Stream size : 18.6 MiB (0%)
Default : No
Forced : No



หมายเหตุ ทุกเว็บโหลดแทนกันได้ แต่ต้องเปลี่ยนชื่อให้เรียงกันด้วย

สำหรับสมาชิก VIP เท่านั้น!

[restrict …]

|——————————————————————|

|——————————————————————|

[/restrict]