Home > Mini-HD > [MINI-HD 1080P] The Curse of La Llorona (2019) คำสาปมรณะจากหญิงร่ำไห้ [พากย์ไทยโรง 2.0 + เสียงอังกฤษ 2.0] [บรรยายเกาหลีฝัง] [MKV]

[MINI-HD 1080P] The Curse of La Llorona (2019) คำสาปมรณะจากหญิงร่ำไห้ [พากย์ไทยโรง 2.0 + เสียงอังกฤษ 2.0] [บรรยายเกาหลีฝัง] [MKV]

[MINI-HD 1080P] The Curse of La Llorona (2019) คำสาปมรณะจากหญิงร่ำไห้

The Curse of La Llorona.2019.1080p.KORSUB.HDRip.x264.THR2.0[Load2up.com].mkv
Format : Matroska
Format version : Version 4
File size : 3.81 GiB
Duration : 1 h 32 min
Overall bit rate : 5 864 kb/s
Movie name : The Curse of La Llorona.2019.1080p.KORSUB.HDRip.x264.THR2.0
Encoded date : UTC 2019-05-27 23:13:35
Writing application : mkvmerge v9.9.0 (‘Pick Up’) 64bit
Writing library : libebml v1.3.4 + libmatroska v1.4.5

Video
ID : 1
Format : AVC
Format/Info : Advanced Video Codec
Format profile : [email protected]
Format settings : CABAC / 4 Ref Frames
Format settings, CABAC : Yes
Format settings, ReFrames : 4 frames
Codec ID : V_MPEG4/ISO/AVC
Duration : 1 h 32 min
Bit rate : 5 221 kb/s
Width : 1 920 pixels
Height : 800 pixels
Display aspect ratio : 2.40:1
Frame rate mode : Constant
Frame rate : 30.303 FPS
Color space : YUV
Chroma subsampling : 4:2:0
Bit depth : 8 bits
Scan type : Progressive
Bits/(Pixel*Frame) : 0.112
Stream size : 3.39 GiB (89%)
Title : The Curse of La Llorona.2019.1080p.KORSUB.HDRip.x264.THR2.0
Language : English
Default : Yes
Forced : No
Color range : Limited
Color primaries : BT.709
Transfer characteristics : BT.709
Matrix coefficients : BT.709

Audio #1
ID : 2
Format : AC-3
Format/Info : Audio Coding 3
Commercial name : Dolby Digital
Codec ID : A_AC3
Duration : 1 h 32 min
Bit rate mode : Constant
Bit rate : 384 kb/s
Channel(s) : 2 channels
Channel layout : L R
Sampling rate : 48.0 kHz
Frame rate : 31.250 FPS (1536 SPF)
Bit depth : 16 bits
Compression mode : Lossy
Stream size : 255 MiB (7%)
Title : ThaiRong 2.0 @ 384 kb/s
Language : Thai
Service kind : Complete Main
Default : Yes
Forced : Yes

Audio #2
ID : 3
Format : AAC LC
Format/Info : Advanced Audio Codec Low Complexity
Codec ID : A_AAC-2
Duration : 1 h 32 min
Bit rate : 256 kb/s
Channel(s) : 2 channels
Channel layout : L R
Sampling rate : 48.0 kHz
Frame rate : 46.875 FPS (1024 SPF)
Compression mode : Lossy
Stream size : 170 MiB (4%)
Title : English 2.0 @ 256 kb/s
Language : English
Default : No
Forced : No



หมายเหตุ ทุกเว็บโหลดแทนกันได้ แต่ต้องเปลี่ยนชื่อให้เรียงกันด้วย

สำหรับสมาชิก VIP เท่านั้น!

[restrict …]

|——————————————————————|

|——————————————————————|

[/restrict]