Home > Mini-HD > [MINI-HD 1080P] TERMINATOR 6 DARK FATE (2019) คนเหล็ก 6 วิกฤตชะตาโลก [ Sound Eng AC3 5.1:Thai Rong AC3 2.0] [ SUB:Eng.PGS] [MKV]

[MINI-HD 1080P] TERMINATOR 6 DARK FATE (2019) คนเหล็ก 6 วิกฤตชะตาโลก [ Sound Eng AC3 5.1:Thai Rong AC3 2.0] [ SUB:Eng.PGS] [MKV]

TERMINATOR 6 DARK FATE (2019) คนเหล็ก 6 วิกฤตชะตาโล

Terminator.Dark.Fate.2019.1080p.WEBRip.DD5.1.x264[Load2up.com].mkv
Format : Matroska
Format version : Version 4
File size : 3.61 GiB
Duration : 2 h 8 min
Overall bit rate : 4 040 kb/s
Movie name : Terminator.Dark.Fate.2019.1080p.WEBRip.DD5.1.x264_©GOLD CUP™
Encoded date : UTC 2020-01-15 06:00:30
Writing application : mkvmerge v42.0.0 (‘Overtime’) 64-bit
Writing library : libebml v1.3.10 + libmatroska v1.5.2
Cover : Yes
Attachments : cover.jpg / small_cover.jpg / small_cover_land.jpg / cover.jpg / cover_land.jpg

Video
ID : 1
Format : AVC
Format/Info : Advanced Video Codec
Format profile : [email protected]
Format settings : CABAC / 1 Ref Frames
Format settings, CABAC : Yes
Format settings, ReFrames : 1 frame
Format settings, GOP : M=1, N=25
Codec ID : V_MPEG4/ISO/AVC
Duration : 2 h 8 min
Bit rate mode : Constant
Bit rate : 3 000 kb/s
Width : 1 920 pixels
Height : 800 pixels
Display aspect ratio : 2.40:1
Frame rate mode : Constant
Frame rate : 29.970 (30000/1001) FPS
Color space : YUV
Chroma subsampling : 4:2:0
Bit depth : 8 bits
Scan type : Progressive
Bits/(Pixel*Frame) : 0.065
Stream size : 2.68 GiB (74%)
Title : Terminator.Dark.Fate.2019.1080p.WEBRip.DD5.1.x264
Language : English
Default : Yes
Forced : No

Audio #1
ID : 2
Format : AC-3
Format/Info : Audio Coding 3
Commercial name : Dolby Digital
Codec ID : A_AC3
Duration : 2 h 8 min
Bit rate mode : Constant
Bit rate : 640 kb/s
Channel(s) : 2 channels
Channel layout : L R
Sampling rate : 44.1 kHz
Frame rate : 28.711 FPS (1536 SPF)
Bit depth : 16 bits
Compression mode : Lossy
Stream size : 586 MiB (16%)
Title : 2.0 AC3 THR 640k 586m_©GOLD CUP™
Language : Thai
Service kind : Complete Main
Default : Yes
Forced : No

Audio #2
ID : 3
Format : AC-3
Format/Info : Audio Coding 3
Commercial name : Dolby Digital
Codec ID : A_AC3
Duration : 2 h 8 min
Bit rate mode : Constant
Bit rate : 384 kb/s
Channel(s) : 6 channels
Channel layout : L R C LFE Ls Rs
Sampling rate : 48.0 kHz
Frame rate : 31.250 FPS (1536 SPF)
Bit depth : 16 bits
Compression mode : Lossy
Stream size : 352 MiB (10%)
Title : 5.1 AC3 EN 384k 352m_©GOLD CUP™
Language : English
Service kind : Complete Main
Default : No
Forced : No

Text #1
ID : 4
Format : PGS
Muxing mode : zlib
Codec ID : S_HDMV/PGS
Codec ID/Info : Picture based subtitle format used on BDs/HD-DVDs
Duration : 1 h 58 min
Bit rate : 12.9 kb/s
Count of elements : 2246
Stream size : 10.9 MiB (0%)
Title : EN.PGS.white.80-55-10_©GOLD CUP™
Language : English
Default : Yes
Forced : No

Text #2
ID : 5
Format : PGS
Muxing mode : zlib
Codec ID : S_HDMV/PGS
Codec ID/Info : Picture based subtitle format used on BDs/HD-DVDs
Duration : 1 h 58 min
Bit rate : 17.6 kb/s
Count of elements : 2864
Stream size : 14.9 MiB (0%)
Title : EN.SDH.PGS.yellow.80-55-10_©GOLD CUP™
Language : English
Default : No
Forced : No



หมายเหตุ ทุกเว็บโหลดแทนกันได้ แต่ต้องเปลี่ยนชื่อให้เรียงกันด้วย


สำหรับสมาชิก VIP เท่านั้น!

[restrict …]

|——————————————————————|

|——————————————————————|

[/restrict]

%d bloggers like this: