Home > Anime > [MINI-HD 1080P] Teen Titans: The Judas Contract (2017) ทีน ไททันส์: รวมพลังฮีโร่วัยทีน [พากย์ไทย+อังกฤษ] [MKV] [ONE2UP]

[MINI-HD 1080P] Teen Titans: The Judas Contract (2017) ทีน ไททันส์: รวมพลังฮีโร่วัยทีน [พากย์ไทย+อังกฤษ] [MKV] [ONE2UP]

[MINI-HD 1080P] Teen Titans: The Judas Contract (2017) ทีน ไททันส์ : รวมพลังฮีโร่วัยทีน

Teen.Titans.The.Judas.Contract.2017.BluRay.1080p.DTS.x264[Load2up.com].mkv
Format : Matroska
Format version : Version 4 / Version 2
File size : 4.62 GiB
Duration : 1 h 24 min
Overall bit rate : 7 852 kb/s
Encoded date : UTC 2018-11-24 10:55:32
Writing application : mkvmerge v20.0.0 (‘I Am The Sun’) 64-bit
Writing library : libebml v1.3.5 + libmatroska v1.4.8

Video
ID : 1
Format : AVC
Format/Info : Advanced Video Codec
Format profile : [email protected]
Format settings, CABAC : Yes
Format settings, ReFrames : 4 frames
Codec ID : V_MPEG4/ISO/AVC
Duration : 1 h 24 min
Bit rate : 5 923 kb/s
Width : 1 920 pixels
Height : 1 080 pixels
Display aspect ratio : 16:9
Frame rate mode : Constant
Frame rate : 23.976 FPS
Color space : YUV
Chroma subsampling : 4:2:0
Bit depth : 8 bits
Scan type : Progressive
Bits/(Pixel*Frame) : 0.119
Stream size : 3.49 GiB (75%)
Writing library : x264 core 148 r2744 b97ae06
Language : English
Default : Yes
Forced : No

Audio #1
ID : 2
Format : DTS
Format/Info : Digital Theater Systems
Mode : 16
Format settings, Endianness : Big
Codec ID : A_DTS
Duration : 1 h 24 min
Bit rate mode : Constant
Bit rate : 1 509 kb/s
Channel(s) : 6 channels
Channel positions : Front: L C R, Side: L R, LFE
Sampling rate : 48.0 kHz
Frame rate : 93.750 FPS (512 spf)
Bit depth : 24 bits
Compression mode : Lossy
Stream size : 909 MiB (19%)
Title : English / DTS
Language : English
Default : Yes
Forced : Yes

Audio #2
ID : 3
Format : AC-3
Format/Info : Audio Coding 3
Format settings, Endianness : Big
Codec ID : A_AC3
Duration : 1 h 24 min
Bit rate mode : Constant
Bit rate : 384 kb/s
Channel(s) : 2 channels
Channel positions : Front: L R
Sampling rate : 48.0 kHz
Frame rate : 31.250 FPS (1536 spf)
Bit depth : 16 bits
Compression mode : Lossy
Stream size : 231 MiB (5%)
Title : Thai / ac-3
Language : Thai
Service kind : Complete Main
Default : No
Forced : No

Text #1
ID : 4
Format : PGS
Muxing mode : zlib
Codec ID : S_HDMV/PGS
Codec ID/Info : Picture based subtitle format used on BDs/HD-DVDs
Duration : 1 h 23 min
Bit rate : 28.3 kb/s
Count of elements : 2008
Stream size : 16.9 MiB (0%)
Title : Thai / PGS angsana
Language : Thai
Default : No
Forced : Yes

Text #2
ID : 5
Format : PGS
Muxing mode : zlib
Codec ID : S_HDMV/PGS
Codec ID/Info : Picture based subtitle format used on BDs/HD-DVDs
Duration : 1 h 23 min
Bit rate : 28.2 kb/s
Count of elements : 2008
Stream size : 16.9 MiB (0%)
Title : Thai / PGS dillenia
Language : Thai
Default : No
Forced : No

Text #3
ID : 6
Format : UTF-8
Codec ID : S_TEXT/UTF8
Codec ID/Info : UTF-8 Plain Text
Duration : 1 h 23 min
Bit rate : 47 b/s
Count of elements : 1004
Stream size : 28.9 KiB (0%)
Title : English / Text
Language : English
Default : Yes
Forced : Yes



หมายเหตุ ทุกเว็บโหลดแทนกันได้ แต่ต้องเปลี่ยนชื่อให้เรียงกันด้วย

สำหรับสมาชิก VIP เท่านั้น!

[restrict …]

|——————————————————————|

|——————————————————————|

[/restrict]