Home > Master > [MINI-HD 1080P] Spider-Man: Far from Home (2019) / สไปเดอร์-แมน: ฟาร์ ฟรอม โฮม [พากย์ไทย 5.1 แท้/640 kbps + เสียงอังกฤษ DTS] [บรรยายไทย + อังกฤษ] [เสียงไทย + ซับไทย From Blu-Ray MASTER +ซับ PGS คมชัด] [MASTER] [MKV]

[MINI-HD 1080P] Spider-Man: Far from Home (2019) / สไปเดอร์-แมน: ฟาร์ ฟรอม โฮม [พากย์ไทย 5.1 แท้/640 kbps + เสียงอังกฤษ DTS] [บรรยายไทย + อังกฤษ] [เสียงไทย + ซับไทย From Blu-Ray MASTER +ซับ PGS คมชัด] [MASTER] [MKV]

ชือเรื่อง Spider-Man: Far from Home (2019) / สไปเดอร์-แมน: ฟาร์ ฟรอม โฮม

ทางค่าย Sony Pictures และ Marvel Studios ได้ทำการปล่อยตัวอย่างฉบับเต็มฉบับใหม่ของซูเปอร์ฮีโ ร่ไอ้แมงมุมภาคต่ออย่าง Spider-Man: Far From Home
ที่ได้รับการยืนยันอย่างเป็นทางการแล้วว่าจะเป็นเหตุ การณ์ที่เกิดขึ้นหลังจาก Avengers: Endgame Peter Parker ได้ออกไปทัศนศึกษาในช่วงวันหยุดฤดูร้อนในยุโรปพร้อมก ับเพื่อนๆ และในช่วงที่เขาห่างจากบ้านอยู่ต่างประเทศนี้เองก็เก ิดเหตุการณ์บางอย่าง
ที่ทำให้เขาต้องไปจับมือรวมทีมกับ Mysterio เพื่อต่อสู้กับเหล่าวายร้าย The Elementals. ภายในตัวอย่างฉบับใหม่นี้ไม่เพียงแค่จะเป็นการสปอยล์ เนื้อเรื่องส่วนสำคัญใน Avengers: Endgameแต่มันยังยืนยันข่าวลือก่อนหน้านี้ที่ว่า ตัวละคร Mysterio ของ Jake Gyllenhaal มาจากโลกมิติอื่น หรือมัลติเวิร์ส ที่ตื่นขึ้นเพราะพลังของมณี อีกด้วย!!!

Unique ID : 226871884239192523146085995758037204632 (0xAAADEF7F85A2DB378B85DD8351E77E98)
Complete name : {MINI Super-HQ}_Spider-Man.Far.from.Home.2019.1080p.BrRip.DTS.x264[Load2up.com].mkv
Format : Matroska
Format version : Version 4
File size : 4.32 GiB
Duration : 2 h 9 min
Overall bit rate : 4 784 kb/s
Movie name : {MINI Super-HQ}_Spider-Man.Far.from.Home.2019.1080p.BrRip.DTS.x264
Encoded date : UTC 2019-09-23 01:45:14
Writing application : mkvmerge v9.8.0 (‘Kuglblids’) 64bit
Writing library : libebml v1.3.4 + libmatroska v1.4.5

Video
ID : 1
Format : AVC
Format/Info : Advanced Video Codec
Format profile : [email protected]
Format settings : CABAC / 4 Ref Frames
Format settings, CABAC : Yes
Format settings, ReFrames : 4 frames
Codec ID : V_MPEG4/ISO/AVC
Duration : 2 h 9 min
Bit rate : 3 172 kb/s
Width : 1 920 pixels
Height : 800 pixels
Display aspect ratio : 2.40:1
Frame rate mode : Constant
Frame rate : 23.976 (24000/1001) FPS
Color space : YUV
Chroma subsampling : 4:2:0
Bit depth : 8 bits
Scan type : Progressive
Bits/(Pixel*Frame) : 0.086
Stream size : 2.87 GiB (66%)
Title : {MINI Super-HQ}_Spider-Man.Far.from.Home.2019.1080p.BrRip.DTS.x264
Writing library : x264 core 146 r2538 121396c
Encoding settings : cabac=1 / ref=5 / deblock=1:-3:-3 / analyse=0x3:0x133 / me=tesa / subme=11 / psy=1 / psy_rd=1.00:0.15 / mixed_ref=1 / me_range=48 / chroma_me=1 / trellis=2 / 8x8dct=1 / cqm=0 / deadzone=21,11 / fast_pskip=1 / chroma_qp_offset=-3 / threads=54 / lookahead_threads=4 / sliced_threads=0 / nr=0 / decimate=1 / interlaced=0 / bluray_compat=1 / constrained_intra=0 / bframes=3 / b_pyramid=1 / b_adapt=2 / b_bias=0 / direct=3 / weightb=1 / open_gop=0 / weightp=1 / keyint=250 / keyint_min=1 / scenecut=40 / intra_refresh=0 / rc_lookahead=60 / rc=2pass / mbtree=1 / bitrate=3172 / ratetol=1.0 / qcomp=0.60 / qpmin=0 / qpmax=69 / qpstep=4 / cplxblur=20.0 / qblur=0.5 / ip_ratio=1.40 / aq=1:1.30
Language : English
Default : No
Forced : No

Audio #1
ID : 2
Format : AC-3
Format/Info : Audio Coding 3
Commercial name : Dolby Digital
Codec ID : A_AC3
Duration : 2 h 9 min
Bit rate mode : Constant
Bit rate : 640 kb/s
Channel(s) : 6 channels
Channel layout : L R C LFE Ls Rs
Sampling rate : 48.0 kHz
Frame rate : 31.250 FPS (1536 SPF)
Bit depth : 16 bits
Compression mode : Lossy
Stream size : 592 MiB (13%)
Title : Thai BluRay Master
Language : Thai
Service kind : Complete Main
Default : Yes
Forced : Yes

Audio #2
ID : 3
Format : DTS
Format/Info : Digital Theater Systems
Codec ID : A_DTS
Duration : 2 h 9 min
Bit rate mode : Constant
Bit rate : 755 kb/s
Channel(s) : 6 channels
Channel layout : C L R Ls Rs LFE
Sampling rate : 48.0 kHz
Frame rate : 93.750 FPS (512 SPF)
Bit depth : 24 bits
Compression mode : Lossy
Stream size : 698 MiB (16%)
Title : English DTS
Language : English
Default : No
Forced : No

Text #1
ID : 4
Format : VobSub
Codec ID : S_VOBSUB
Codec ID/Info : Picture based subtitle format used on DVDs
Duration : 2 h 9 min
Bit rate : 2 674 b/s
Count of elements : 1751
Stream size : 2.47 MiB (0%)
Title : Thai 480p
Language : Thai
Default : No
Forced : No

Text #2
ID : 5
Format : VobSub
Codec ID : S_VOBSUB
Codec ID/Info : Picture based subtitle format used on DVDs
Duration : 2 h 9 min
Bit rate : 5 096 b/s
Count of elements : 1751
Stream size : 4.71 MiB (0%)
Title : Thai 720p
Language : Thai
Default : No
Forced : No

Text #3
ID : 6
Format : VobSub
Codec ID : S_VOBSUB
Codec ID/Info : Picture based subtitle format used on DVDs
Duration : 2 h 9 min
Bit rate : 9 357 b/s
Count of elements : 1751
Stream size : 8.65 MiB (0%)
Title : Thai 1080p
Language : Thai
Default : Yes
Forced : Yes

Text #4
ID : 7
Format : VobSub
Codec ID : S_VOBSUB
Codec ID/Info : Picture based subtitle format used on DVDs
Duration : 2 h 9 min
Bit rate : 9 336 b/s
Count of elements : 1751
Stream size : 8.63 MiB (0%)
Title : Thai 1080p Yellow
Language : Thai
Default : No
Forced : No

Text #5
ID : 8
Format : VobSub
Codec ID : S_VOBSUB
Codec ID/Info : Picture based subtitle format used on DVDs
Duration : 2 h 9 min
Bit rate : 9 424 b/s
Count of elements : 1751
Stream size : 8.71 MiB (0%)
Title : Thai 1080p Out
Language : Thai
Default : No
Forced : No

Text #6
ID : 9
Format : VobSub
Codec ID : S_VOBSUB
Codec ID/Info : Picture based subtitle format used on DVDs
Duration : 2 h 9 min
Bit rate : 12.8 kb/s
Count of elements : 1751
Stream size : 11.9 MiB (0%)
Title : Thai 1080p BIG
Language : Thai
Default : No
Forced : No

Text #7
ID : 10
Format : VobSub
Codec ID : S_VOBSUB
Codec ID/Info : Picture based subtitle format used on DVDs
Duration : 2 h 9 min
Bit rate : 12.9 kb/s
Count of elements : 1751
Stream size : 12.0 MiB (0%)
Title : Thai 1080p Out BIG
Language : Thai
Default : No
Forced : No

Text #8
ID : 11
Format : PGS
Codec ID : S_HDMV/PGS
Codec ID/Info : Picture based subtitle format used on BDs/HD-DVDs
Duration : 2 h 8 min
Bit rate : 33.0 kb/s
Count of elements : 3504
Stream size : 30.4 MiB (1%)
Title : Thai PGS BluRay Master
Language : Thai
Default : No
Forced : No

Text #9
ID : 12
Format : PGS
Codec ID : S_HDMV/PGS
Codec ID/Info : Picture based subtitle format used on BDs/HD-DVDs
Duration : 2 h 9 min
Bit rate : 39.4 kb/s
Count of elements : 3508
Stream size : 36.4 MiB (1%)
Title : Thai PGS Yellow
Language : Thai
Default : No
Forced : No

Text #10
ID : 13
Format : PGS
Codec ID : S_HDMV/PGS
Codec ID/Info : Picture based subtitle format used on BDs/HD-DVDs
Duration : 2 h 9 min
Bit rate : 39.9 kb/s
Count of elements : 3508
Stream size : 36.9 MiB (1%)
Title : Thai PGS Out
Language : Thai
Default : No
Forced : No

Text #11
ID : 14
Format : PGS
Codec ID : S_HDMV/PGS
Codec ID/Info : Picture based subtitle format used on BDs/HD-DVDs
Duration : 2 h 8 min
Bit rate : 42.1 kb/s
Count of elements : 3858
Stream size : 38.6 MiB (1%)
Title : English
Language : English
Default : No
Forced : No

Menu
00:00:00.000 : en:1
00:09:34.032 : en:2
00:16:05.715 : en:3
00:25:17.474 : en:4
00:35:25.497 : en:5
00:41:56.011 : en:6
00:49:49.025 : en:7
00:57:08.506 : en:8
01:04:49.632 : en:9
01:15:56.215 : en:10
01:22:48.084 : en:11
01:29:24.188 : en:12
01:36:42.251 : en:13
01:44:46.360 : en:14
01:52:16.393 : en:15
01:57:44.429 : en:16
02:09:21.952 : en:1



หมายเหตุ ทุกเว็บโหลดแทนกันได้ แต่ต้องเปลี่ยนชื่อให้เรียงกันด้วย

สำหรับสมาชิก VIP เท่านั้น!

[restrict …]

cornfile.com

|——————————————————————|

|——————————————————————|

[/restrict]